<?xml version="1.0" standalone="no"?>
<!DOCTYPE svg PUBLIC "-//W3C//DTD SVG 1.1//EN" "http://www.w3.org/Graphics/SVG/1.1/DTD/svg11.dtd" >
<svg>
<metadata>
Created by FontForge 20090914 at Thu Feb 23 23:35:10 2012
 By root
Alweer een crejaculatie van Sander Kessels, Amsterdam, mei 1995
</metadata>
<defs>
<font id="CentabelBook" horiz-adv-x="500" >
  <font-face 
    font-family="Centabel Book"
    font-weight="400"
    font-stretch="normal"
    units-per-em="1000"
    panose-1="0 0 4 0 0 0 0 0 0 0"
    ascent="800"
    descent="-200"
    x-height="483"
    cap-height="689"
    bbox="-167 -210 1000 925"
    underline-thickness="62"
    underline-position="-63"
    unicode-range="U+0020-U+F002"
  />
<missing-glyph 
d="M63 0v792h375v-792h-375zM125 63h250v667h-250v-667z" />
    <glyph glyph-name=".notdef" 
d="M63 0v792h375v-792h-375zM125 63h250v667h-250v-667z" />
    <glyph glyph-name=".null" horiz-adv-x="0" 
 />
    <glyph glyph-name="nonmarkingreturn" horiz-adv-x="250" 
 />
    <glyph glyph-name="space" unicode=" " horiz-adv-x="250" 
 />
    <glyph glyph-name="exclam" unicode="!" horiz-adv-x="250" 
d="M121 111q12 0 34 -22.5t22 -35.5t-22 -35.5t-34 -22.5t-34 22.5t-22 35.5t22 35.5t34 22.5zM71 666h92l-18 -470h-58z" />
    <glyph glyph-name="quotedbl" unicode="&#x22;" horiz-adv-x="333" 
d="M264 673l-2 -91l-7 -171q-10 -12 -23 -12q-15 0 -23 12l-9 262q12 20 32 20t32 -20zM133 673l-2 -91l-7 -171q-10 -12 -23 -12q-15 0 -23 12l-9 262q12 20 32 20t32 -20z" />
    <glyph glyph-name="numbersign" unicode="#" 
d="M9 272h112l21 148h-107l2 52h112l32 220h57l-32 -220h131l32 220h57l-32 -220h101l-2 -52h-106l-21 -148h101l-2 -52h-106l-31 -220h-57l31 220h-131l-31 -220h-57l31 220h-107zM178 272h131l21 148h-131z" />
    <glyph glyph-name="dollar" unicode="$" 
d="M288 732v-76q112 -10 148 -91q-4 -39 -34 -45l-11 -1q-20 0 -26 19q0 24 31 24q-18 27 -52 41q-19 8 -56 12v-234q95 -24 134.5 -62.5t39.5 -102.5q0 -155 -174 -180v-93h-44v90q-64 1 -115 34q-55 35 -68 96q7 35 39 41l11 1q22 0 28 -19q0 -27 -26 -27q-4 0 -10 2
q10 -28 50 -57q31 -22 91 -27v246q-89 27 -126 64t-37 105q0 72 53 118q43 38 110 45v77h44zM244 394v220q-103 -18 -103 -111q0 -51 40 -78q29 -20 63 -31zM288 311v-232q41 6 71 33q39 35 39 87q0 53 -35 78q-19 14 -75 34z" />
    <glyph glyph-name="percent" unicode="%" horiz-adv-x="750" 
d="M561 693h52l-424 -707h-54zM178 681q66 0 111.5 -53.5t45.5 -131.5t-46 -131.5t-113 -53.5q-65 0 -110.5 54t-45.5 132q0 76 46 130t112 54zM178 643q-45 0 -72 -40.5t-27 -106.5t27.5 -106t72.5 -40q44 0 70.5 40.5t26.5 106.5q0 64 -27 105t-71 41zM568 369
q67 0 112.5 -53t45.5 -131t-46.5 -131.5t-113.5 -53.5q-65 0 -110.5 54t-45.5 132q0 76 46 129.5t112 53.5zM570 330q-45 0 -72.5 -41t-27.5 -106t27.5 -105t73.5 -40q44 0 70.5 40t26.5 106q0 64 -27 105t-71 41z" />
    <glyph glyph-name="ampersand" unicode="&#x26;" horiz-adv-x="667" 
d="M583 276q-43 -84 -98 -142q58 -65 101 -97q39 0 41 44h14q-13 -84 -100 -92q-37 1 -76 48l-37 45l-61 -46q-63 -46 -129 -46q-97 0 -154 53q-53 48 -53 121q0 126 173 214q-10 14 -28 50q-27 53 -27 106q0 71 47 116t120 45q59 0 99 -34q43 -37 43 -94q0 -56 -57 -112
q-44 -43 -107 -74q62 -96 144 -193q7 -8 17 -21q14 15 38.5 48t42.5 79q0 39 -50 39v17h65l65 -1l22 -33q-26 0 -36.5 -7t-18.5 -33zM272 414q49 23 81 60q39 43 39 90q0 39 -25.5 64t-62.5 25t-60 -25q-25 -28 -25 -76q0 -41 24 -87q13 -25 29 -51zM228 342
q-117 -82 -117 -168q0 -60 39 -99t96 -39q64 0 155 79q-7 8 -55 71l-114 151q-1 1 -4 5z" />
    <glyph glyph-name="quotesingle" unicode="'" horiz-adv-x="222" 
d="M143 673l-2 -91l-7 -171q-10 -12 -23 -12q-15 0 -23 12l-9 262q12 20 32 20t32 -20z" />
    <glyph glyph-name="parenleft" unicode="(" horiz-adv-x="361" 
d="M104 261q0 -134 57 -239q60 -110 162 -144l-8 -41q-124 36 -202 155.5t-78 268.5t78 268.5t202 155.5l8 -41q-102 -34 -162 -144q-57 -105 -57 -239z" />
    <glyph glyph-name="parenright" unicode=")" horiz-adv-x="361" 
d="M256 261q0 134 -57 239q-60 110 -162 144l8 41q124 -36 202 -155.5t78 -268.5t-78 -268.5t-202 -155.5l-8 41q102 34 162 144q57 105 57 239z" />
    <glyph glyph-name="asterisk" unicode="*" horiz-adv-x="444" 
d="M206 473q-24 -12 -36 -20q-26 -19 -87 -72l-7 -1q-14 0 -24.5 13t-10.5 27q0 11 9 20q110 39 140 60q-20 16 -83 38q-58 22 -62 27t-4 15q0 8 6 20q12 20 29 20l7 -1q83 -72 123 -92l-1 40q-1 21 -17 112q5 21 33 21t33 -21q-18 -91 -18 -112v-40q24 12 36 21
q26 18 87 71l7 1q16 0 28 -20q7 -14 7 -20q0 -11 -9 -20q-110 -39 -140 -60q25 -19 140 -60q9 -13 9 -20q0 -8 -7 -20q-12 -20 -28 -20l-7 1q-83 72 -123 92v-41q0 -21 18 -111q-4 -21 -33 -21t-33 21q16 90 17 111z" />
    <glyph glyph-name="plus" unicode="+" horiz-adv-x="600" 
d="M271 273v212h57v-212h216v-57h-216v-214h-57v214h-214v57h214z" />
    <glyph glyph-name="comma" unicode="," horiz-adv-x="250" 
d="M151 96q32 0 32 -44q0 -31 -43 -126.5t-65 -113.5q-7 2 -18.5 6t-19.5 6q34 45 54 92q3 7 32 84q-42 2 -42 43q0 10 3 21q8 26 32 31q3 1 35 1z" />
    <glyph glyph-name="hyphen" unicode="-" horiz-adv-x="306" 
d="M27 270h250v-55h-250v55z" />
    <glyph glyph-name="hyphen" unicode="&#x2010;" horiz-adv-x="306" 
d="M27 270h250v-55h-250v55z" />
    <glyph glyph-name="period" unicode="." horiz-adv-x="250" 
d="M118 109q12 0 33.5 -22t21.5 -35t-21.5 -35t-33.5 -22t-33.5 22t-21.5 35t21.5 35t33.5 22z" />
    <glyph glyph-name="slash" unicode="/" horiz-adv-x="278" 
d="M-14 -15l252 716h54l-252 -716h-54z" />
    <glyph glyph-name="zero" unicode="0" 
d="M468 342q0 -152 -62.5 -254.5t-156.5 -102.5t-156 102t-62 255q0 152 62.5 255t156.5 103t156 -102.5t62 -255.5zM385 342q0 141 -35.5 226.5t-100.5 85.5q-64 0 -99.5 -85.5t-35.5 -226.5t35 -224q36 -87 101 -87q64 0 100 87q35 83 35 224z" />
    <glyph glyph-name="one" unicode="1" 
d="M316 44q0 -22 37 -22h23v-17q-11 0 -27.5 -1.5t-22.5 -1.5t-50 -2q-11 0 -27.5 -1.5t-23.5 -1.5t-49 -2v17h23q37 0 37 22v555q0 21 -51 21q-46 -27 -90 -50q-1 6 -4.5 19.5t-4.5 19.5q121 39 216 109h14v-664z" />
    <glyph glyph-name="two" unicode="2" 
d="M25 0q29 72 104 157q30 33 136 137q113 111 113 208q0 66 -42 109.5t-106 43.5t-106 -40.5t-43 -100.5q16 -71 94 -77q17 -8 17 -27q0 -47 -41 -57q-52 7 -85.5 45.5t-33.5 96.5q0 92 58 149t151 57q94 0 155 -57.5t61 -144.5q0 -121 -142 -235q-151 -121 -196 -194h256
q35 0 49.5 14.5t18.5 49.5h13l-9 -134h-422z" />
    <glyph glyph-name="three" unicode="3" 
d="M119 540q-13 -22 -22.5 -25t-12.5 -3q-12 0 -21 4q-20 17 -23 28q1 -3 1 27q13 52 63 89q56 40 129 40q91 0 149 -50.5t58 -128.5q0 -52 -34.5 -93.5t-94.5 -62.5q66 -12 107 -59t41 -112q0 -93 -68.5 -151t-176.5 -58q-58 0 -110 34q-61 39 -72 100q-5 16 -5 26
q0 21 27 32q20 8 29 8q11 0 20 -4q9 -13 9 -20q0 -9 -7 -19t-20 -10q-9 0 -18 5q6 -43 47.5 -74.5t98.5 -31.5q77 0 120 41.5t43 116.5q0 72 -36 111q-39 41 -109 38l-24 -1l-25 -2q-14 6 -14 24q0 15 13 23l40 -2q59 -3 99.5 34.5t40.5 102.5q0 63 -36 100t-98 37
q-56 0 -94.5 -26t-53.5 -65q7 4 16 4q6 0 13 -5q11 -11 11 -22z" />
    <glyph glyph-name="four" unicode="4" 
d="M335 707h15l15 1v-472h112l-2 -27q0 -2 -3 -25h-107v-143q0 -21 26 -21h16v-17q-9 0 -22.5 -1.5t-18 -1.5t-41.5 -2l-91 -5v17h19q32 0 32 21v153h-278v22zM285 564l-211 -328h211v328z" />
    <glyph glyph-name="five" unicode="5" 
d="M421 689v-1q-6 -29 -22 -55q-73 -32 -178 -32q-44 0 -86 9l-10 -208q42 39 112 39q96 0 160.5 -64t64.5 -160q0 -98 -73.5 -165t-172.5 -67q-61 0 -120 35q-68 39 -68 97q0 22 22 41t45 19q18 -9 18 -26q0 -29 -26 -29q-6 0 -18 4q12 -44 56 -71q40 -24 88 -24
q76 0 123.5 50t47.5 126q0 80 -42 131q-45 56 -123 56q-90 0 -129 -68q0 -20 -12 -20q-7 0 -7 12q0 4 1.5 10t1.5 9l16 352q86 -12 172 -12q80 0 159 12z" />
    <glyph glyph-name="six" unicode="6" 
d="M472 233q0 -109 -61.5 -178.5t-158.5 -69.5q-91 0 -152 77q-66 81 -66 212q0 138 80 265q78 124 190 172l21 -35q-99 -47 -153 -155q-36 -72 -49 -162q29 47 54 66q42 32 97 32q84 0 141 -65t57 -159zM117 259v-4q0 -224 143 -224q63 0 98 50.5t35 140.5v6
q0 185 -138 185q-106 0 -138 -154z" />
    <glyph glyph-name="seven" unicode="7" 
d="M477 686v-22q-172 -325 -228 -599l-1 -20l1 -17q-8 -36 -42 -36h-5q-31 0 -41 39l2 22q1 7 6 24q70 217 237 539h-266q-39 0 -57.5 -15.5t-22.5 -54.5h-16l10 140h423z" />
    <glyph glyph-name="eight" unicode="8" 
d="M227 325q-132 -26 -132 -149q0 -65 41 -105t107 -40t111 39t45 99q0 120 -172 156zM252 654q-60 0 -98.5 -38t-38.5 -97q0 -106 160 -133q45 4 74 36q33 37 33 96q0 60 -36.5 98t-93.5 38zM170 346q-124 47 -124 161q0 85 58 139t150 54q86 0 140.5 -48.5t54.5 -125.5
q0 -103 -116 -159q63 -24 101 -72t38 -108q0 -90 -65 -146t-168 -56q-92 0 -152.5 53.5t-60.5 135.5q0 57 44 107q40 46 100 65z" />
    <glyph glyph-name="nine" unicode="9" 
d="M27 450q0 110 61 180.5t157 70.5q91 0 154 -75q66 -80 66 -208q0 -145 -78 -270t-195 -173l-21 35q105 44 158 146q30 57 47 155q-24 -39 -49 -56q-43 -30 -97 -30q-83 0 -143 67t-60 158zM382 428q-1 98 -23 149q-33 78 -116 78q-66 0 -101.5 -50t-35.5 -141v-6
q0 -189 139 -189q113 0 137 159z" />
    <glyph glyph-name="colon" unicode=":" horiz-adv-x="250" 
d="M119 409q12 0 33.5 -22t21.5 -35t-21.5 -35t-33.5 -22t-33.5 22t-21.5 35t21.5 35t33.5 22zM119 109q12 0 33.5 -22t21.5 -35t-21.5 -35t-33.5 -22t-33.5 22t-21.5 35t21.5 35t33.5 22z" />
    <glyph glyph-name="semicolon" unicode=";" horiz-adv-x="250" 
d="M129 409q12 0 33.5 -22t21.5 -35t-21.5 -35t-33.5 -22t-33.5 22t-21.5 35t21.5 35t33.5 22zM151 96q32 0 32 -44q0 -31 -43 -126.5t-65 -113.5q-7 2 -18.5 6t-19.5 6q34 45 54 92q3 7 32 84q-42 2 -42 43q0 10 3 21q8 26 32 31q3 1 35 1z" />
    <glyph glyph-name="less" unicode="&#x3c;" horiz-adv-x="600" 
d="M125 243l419 -188v-59l-489 220v54l489 220v-59z" />
    <glyph glyph-name="equal" unicode="=" horiz-adv-x="600" 
d="M57 311v56h487v-56h-487zM57 119v56h487v-56h-487z" />
    <glyph glyph-name="greater" unicode="&#x3e;" horiz-adv-x="600" 
d="M56 55l419 188l-419 188v59l489 -220v-54l-489 -220v59z" />
    <glyph glyph-name="question" unicode="?" horiz-adv-x="444" 
d="M225 706q80 0 133 -44q57 -47 57 -125q0 -83 -88 -154q-51 -41 -62 -55q-22 -28 -25 -77q0 -7 -3 -50l-39 -6v94q0 45 37 81l67 63q37 42 37 99q0 55 -36 91.5t-91 36.5q-48 0 -85.5 -27.5t-47.5 -73.5q5 0 15 2q15 0 24 -15q-3 -28 -39 -28q-46 0 -46 42q0 16 14 44
q50 102 178 102zM225 110q13 0 34.5 -22.5t21.5 -35.5t-21.5 -35.5t-34.5 -22.5t-35 22.5t-22 35.5t22 35.5t35 22.5z" />
    <glyph glyph-name="at" unicode="@" horiz-adv-x="800" 
d="M416 702q143 0 240 -88q94 -85 94 -205q0 -107 -64.5 -189.5t-139.5 -82.5q-66 0 -85 71q-18 -27 -49 -46q-36 -23 -73 -23q-51 0 -82 36q-34 38 -34 108q0 90 64 171q67 87 153 87q68 0 89 -72l17 52h64l-79 -275q-5 -17 -5 -30q0 -36 30 -36q49 0 96 69q51 74 51 164
q0 100 -82.5 174t-201.5 74q-124 0 -213 -92.5t-89 -225.5t93 -226q89 -89 207 -89q75 0 143 27q62 24 90 59l33 -13q-26 -43 -97 -76q-78 -38 -162 -38q-162 0 -270 108q-105 105 -105 252q0 142 107.5 248.5t259.5 106.5zM440 492q-57 0 -104 -71q-44 -67 -44 -140
q0 -90 66 -90q61 0 108 79q42 70 42 136q0 35 -19.5 60.5t-48.5 25.5z" />
    <glyph glyph-name="A" unicode="A" horiz-adv-x="667" 
d="M430 302l-112 246l-110 -246h222zM681 17v-17l-169 -8v17q32 0 38 6q3 3 3 9q0 7 -5 22l-94 203h-269l-85 -191q-6 -13 -6 -25q0 -24 54 -24v-17l-163 8v17q46 0 61 49l277 631h18l286 -639q10 -23 20.5 -32t33.5 -9z" />
    <glyph glyph-name="B" unicode="B" horiz-adv-x="584" 
d="M174 330v-252q18 -30 102 -30q91 0 133.5 32t42.5 104q0 146 -150 146h-128zM46 0v17h18q28 0 28 33v587q0 33 -28 33h-18v17h241q110 0 171 -45t61 -128q0 -60 -39 -101.5t-108 -53.5q82 -11 127.5 -56t45.5 -115q0 -84 -59.5 -136t-155.5 -52h-284zM174 379h95
q159 0 159 127q0 70 -40 101.5t-124 31.5q-72 0 -90 -24v-236z" />
    <glyph glyph-name="C" unicode="C" horiz-adv-x="612" 
d="M126 344q0 -135 68.5 -223t175.5 -88q71 0 118.5 39t62.5 103q3 -9 10 -38q-15 -74 -67.5 -113t-133.5 -39q-138 0 -232 102.5t-94 254.5q0 147 98 252.5t234 105.5q45 0 99 -20l54 -24q13 0 20 19h12q0 -109 -9 -154q-64 131 -174 131q-113 0 -177.5 -83.5t-64.5 -224.5
z" />
    <glyph glyph-name="D" unicode="D" horiz-adv-x="667" 
d="M536 342q0 297 -256 297q-41 0 -57 -4q-32 -6 -45 -30v-525q17 -32 95 -32q263 0 263 294zM96 637q0 33 -28 33h-19v17h248q141 0 236 -97t95 -247q0 -149 -96 -246t-241 -97h-242v17h19q28 0 28 33v587z" />
    <glyph glyph-name="E" unicode="E" horiz-adv-x="584" 
d="M52 0v17h17q29 0 29 33v587q0 33 -29 33h-17v17h468q2 -70 9 -154h-15q-27 106 -116 106h-159q-59 0 -59 -35v-226h142q41 0 57 12.5t21 47.5h14v-169h-14q-5 35 -21 47.5t-57 12.5h-142v-249q0 -32 38 -32h172q67 0 99 28q29 25 42 84h16q-4 -42 -9 -160h-486z" />
    <glyph glyph-name="F" unicode="F" 
d="M179 53q0 -33 33 -33h22v-17l-48 -2l-48 -1l-44 -2l-43 -1v17h18q28 0 28 33v590q0 33 -27 33h-18v17h434q2 -68 9 -152h-15q-28 104 -116 104h-126q-59 0 -59 -35v-225h107q40 0 56.5 13.5t21.5 50.5h14v-178h-14q-5 38 -21.5 51.5t-56.5 13.5h-107v-277z" />
    <glyph glyph-name="G" unicode="G" horiz-adv-x="695" 
d="M125 338q0 -133 68.5 -219t175.5 -86q129 0 163 109v107q0 29 -12 40t-43 11h-113l10 49h285v-18h-6q-39 0 -39 -30v-262h-19q-8 24 -17 24q-33 -29 -86 -51q-67 -27 -129 -27q-133 0 -231.5 104t-98.5 246q0 156 96.5 261t241.5 105q104 0 200 -70h2q5 -1 14 14h15v-116
q-6 -4 -17 -12t-17 -12q-26 70 -79 109t-115 39q-117 0 -183 -84.5t-66 -230.5z" />
    <glyph glyph-name="H" unicode="H" horiz-adv-x="695" 
d="M91 639q0 33 -28 33h-18v17h178v-11h-20q-30 0 -30 -33v-266h343v260q0 33 -27 33h-18v17h174v-11h-19q-28 0 -28 -33v-592q0 -33 28 -33h19v-23h-174v17h18q27 0 27 32v284h-343v-278q0 -32 30 -32h20v-23h-178v17h18q28 0 28 33v592z" />
    <glyph glyph-name="I" unicode="I" horiz-adv-x="278" 
d="M180 53q0 -25 13 -31q5 -2 35 -2v-23h-178v17q30 0 35 2q13 6 13 31v592q0 25 -13 31q-5 2 -35 2v17h178v-11q-30 0 -35 -2q-13 -6 -13 -31v-592z" />
    <glyph glyph-name="J" unicode="J" horiz-adv-x="417" 
d="M246 639q0 33 -30 33h-20v17h181v-11h-20q-29 0 -29 -33v-467q0 -193 -187 -193q-62 0 -100 24.5t-43 66.5q6 37 31 51q17 10 31 10q5 0 13 -2q7 -12 7 -19q0 -8 -7 -20q-10 -12 -23 -12q-10 0 -17 4q10 -22 35 -37q30 -19 66 -18q61 1 86.5 37t25.5 124v445z" />
    <glyph glyph-name="K" unicode="K" horiz-adv-x="584" 
d="M182 53q0 -33 26 -33h17v-23h-173v17h19q29 0 29 33v592q0 33 -29 33h-19v17l44 1l45 2l42 1l42 2v-17h-17q-26 0 -26 -33v-154q0 -102 3 -153l264 302q11 17 11 28q-2 11 -41 11v17l80 -6q72 -6 80 -6v-17q-34 0 -57 -26l-225 -252l246 -329q19 -32 54 -32v-17
q-29 -3 -86 -8q-14 -1 -42.5 -4t-42.5 -4v17q24 0 31 6q2 2 2 6q0 9 -13 30l-224 293l-40 -42v-252z" />
    <glyph glyph-name="L" unicode="L" horiz-adv-x="473" 
d="M172 645v-565q0 -32 38 -32h123q92 0 117 112h16q-6 -56 -13 -160h-408v17h18q27 0 27 33v589q0 33 -26 33h-18v17h174v-11h-19q-29 0 -29 -33z" />
    <glyph glyph-name="M" unicode="M" horiz-adv-x="806" 
d="M712 696v-17h-18q-26 0 -26 -33l69 -593q0 -33 29 -33h20v-17l-46 -2l-45 -1l-43 -2l-44 -1l2 17h18q27 0 27 33l-50 534l-211 -589h-18l-213 587l-46 -517q0 -49 33 -49h17v-17l-151 8v17h17q33 0 33 49l69 576q0 33 -29 33h-19v17h118l197 -537l197 537h113z" />
    <glyph glyph-name="N" unicode="N" horiz-adv-x="695" 
d="M547 159v480q0 33 -30 33h-20v17h145v-11h-18q-26 0 -26 -33v-658h-18l-7 11l-422 549v-494q0 -33 32 -33h21v-23h-154v17h20q30 0 30 33v611l-8 8q-10 13 -28 13h-14v17h86z" />
    <glyph glyph-name="O" unicode="O" horiz-adv-x="750" 
d="M627 343q0 141 -68.5 225.5t-184.5 84.5q-115 0 -183.5 -85t-68.5 -225t68.5 -225t183.5 -85q116 0 184.5 84.5t68.5 225.5zM718 343q0 -150 -99.5 -254t-244.5 -104q-144 0 -243.5 104t-99.5 254t99.5 254t243.5 104q145 0 244.5 -104t99.5 -254z" />
    <glyph glyph-name="P" unicode="P" horiz-adv-x="528" 
d="M175 272v-220q0 -32 29 -32h20v-23h-178v17h19q28 0 28 33v590q0 33 -26 33h-18v17h220q115 0 178.5 -53.5t63.5 -152.5t-62.5 -154t-171.5 -55h-102zM176 320h43l43 1q81 2 118.5 39.5t37.5 120.5q0 73 -39 115.5t-108 42.5q-77 0 -95 -38v-281z" />
    <glyph glyph-name="Q" unicode="Q" horiz-adv-x="750" 
d="M498 65q-52 118 -95 118q-28 0 -33 -33v-6q0 -32 39 -39q-58 2 -58 45q0 26 23 48.5t57 22.5q48 0 121 -111q3 2 6 8q69 92 69 225q0 141 -68.5 225.5t-184.5 84.5q-115 0 -183.5 -85t-68.5 -225t68.5 -225t183.5 -85q77 0 124 32zM719 3l2 -24q-1 -39 -26 -61t-61 -22
q-62 0 -117 119q-58 -30 -143 -30q-144 0 -243.5 104t-99.5 254t99.5 254t243.5 104q145 0 244.5 -104t99.5 -254q0 -149 -100 -254q-6 -6 -33 -31q71 -104 95 -104q33 0 39 49z" />
    <glyph glyph-name="R" unicode="R" horiz-adv-x="556" 
d="M177 330v-278q0 -32 30 -32h20v-23h-179v17h19q28 0 28 33v590q0 33 -28 33h-19v17h244q97 0 155 -51t58 -138q0 -77 -52 -126q-55 -50 -152 -57q76 -46 177 -205q0 -1 18 -39q13 -27 20 -27q18 0 21 40h14q-6 -41 -30.5 -66t-64.5 -22q-23 2 -53 71q-116 269 -199 263
l-15 -1zM177 355l47 -1h48q146 0 146 132q0 153 -151 153q-75 0 -90 -31v-253z" />
    <glyph glyph-name="S" unicode="S" horiz-adv-x="528" 
d="M496 201q0 -100 -63.5 -158t-170.5 -58q-53 0 -110 29q-50 25 -77 57q-8 0 -23 -24h-14v130q14 6 39 19q16 -66 68 -113q57 -50 131 -50q62 0 103.5 37t41.5 92q0 63 -42 98q-38 31 -132 56q-109 29 -155 73t-46 120q0 83 59 137.5t150 54.5q87 0 178 -71q7 0 15 20l1 3
h16v-116l-34 -22q-18 55 -60 93q-49 45 -111 45q-64 0 -102 -32t-38 -89q0 -95 165 -138q113 -29 162 -75t49 -118z" />
    <glyph glyph-name="T" unicode="T" horiz-adv-x="528" 
d="M305 53q0 -33 29 -33h20v-17l-181 -6v17h20q29 0 29 33v592h-100q-84 0 -100 -101h-15q3 57 11 149h494l3 -149h-15q-18 101 -100 101h-95v-586z" />
    <glyph glyph-name="U" unicode="U" horiz-adv-x="667" 
d="M529 237v393q0 42 -37 42h-17v17q75 2 150 6v-17h-15q-33 0 -33 -42v-410q0 -115 -65 -178t-182 -63q-118 0 -180.5 57t-62.5 167v430q0 33 -29 33h-19l1 17q89 2 177 6v-17h-19q-29 0 -29 -33v-433q0 -86 43.5 -132.5t123.5 -46.5q94 0 143.5 52.5t49.5 151.5z" />
    <glyph glyph-name="V" unicode="V" horiz-adv-x="611" 
d="M485 678v18l141 -9v-17q-36 0 -47 -40l-266 -638h-23l-254 637q-10 41 -50 41v16l171 9v-17q-34 0 -42 -11q-3 -4 -3 -12t6 -23l201 -492l202 483q6 14 6 29q0 4 -2 12q-6 14 -40 14z" />
    <glyph glyph-name="W" unicode="W" horiz-adv-x="861" 
d="M764 625q5 16 5 31q0 5 -2 13q-6 10 -32 10h-9v17q96 -8 145 -11v-17q-34 0 -47 -40l-214 -636h-19l-156 494l-167 -494h-18l-214 649q-5 27 -36 27l-1 17q53 3 159 11v-17q-29 0 -32.5 -7.5t-3.5 -10.5q0 -11 3 -16l152 -474l148 440l-10 33q-7 23 -10 26q-8 9 -32 9v17
h129v-17q-38 0 -38 -21q0 -10 3 -17l152 -469z" />
    <glyph glyph-name="X" unicode="X" horiz-adv-x="612" 
d="M436 674v17q37 -4 112 -11l36 -3v-17q-41 0 -67 -38l-166 -244l220 -320q16 -29 54 -29v-17q-15 -1 -46 -4t-46 -5t-46 -4q-16 -2 -47 -4v17q34 0 40 10q2 6 2 9q0 13 -11 29l-170 248l-85.5 -121l-85.5 -121q-14 -25 -14 -35l1 -6q5 -12 43 -12v-17q-13 1 -41 3
q-14 2 -40 4q-8 1 -41 3q-14 2 -41 4v17q42 1 66 34l208 295l-190 280q-12 24 -59 24v17q30 2 91 7l43 3q8 1 22 2.5t21 1.5v-17q-31 0 -36 -8l-1 -5q0 -7 6 -19l153 -217q21 29 146 216q6 9 6 18q0 1 -2 7q-6 8 -35 8z" />
    <glyph glyph-name="Y" unicode="Y" horiz-adv-x="556" 
d="M427 678v17l149 -8v-17q-36 0 -53 -32l-198 -380l-57 -205q0 -33 33 -33h22v-17q-94 -5 -189 -6v17h21q31 0 31 33l56 229l-205 368q-14 26 -47 26l-1 16l174 9v-17q-42 0 -42 -17q0 -7 6 -18l176 -310l161 305q6 11 6 22l-3 9q-5 5 -40 9z" />
    <glyph glyph-name="Z" unicode="Z" horiz-adv-x="556" 
d="M379 48q66 0 99 29q28 26 40 83h16l-10 -160h-506v9l389 630h-226q-123 0 -131 -98h-15q3 45 11 146h473v-20l-381 -619h241z" />
    <glyph glyph-name="bracketleft" unicode="[" horiz-adv-x="306" 
d="M131 609v-696q0 -35 44 -35h62v-41h-170v848h170v-41h-62q-44 0 -44 -35z" />
    <glyph glyph-name="backslash" unicode="\" horiz-adv-x="278" 
d="M270 -15l-321 716h57l321 -716h-57z" />
    <glyph glyph-name="bracketright" unicode="]" horiz-adv-x="306" 
d="M173 609q0 35 -43 35h-63v41h170v-848h-170v41h63q43 0 43 35v696z" />
    <glyph glyph-name="asciicircum" unicode="^" horiz-adv-x="600" 
d="M133 289h-63l203 404h54l204 -404h-63l-168 337z" />
    <glyph glyph-name="underscore" unicode="_" 
d="M500 -124h-500v62h500v-62z" />
    <glyph glyph-name="grave" unicode="`" horiz-adv-x="250" 
d="M194 552h-47l-87 68q-51 41 -69 62q9 25 52 25q24 -15 64 -59z" />
    <glyph glyph-name="a" unicode="a" horiz-adv-x="472" 
d="M325 171v43q-6 31 -27.5 46t-41.5 13l-12 -1q-60 -5 -100 -44.5t-40 -91.5q0 -43 27.5 -71t74.5 -28q51 0 85 39t34 95zM329 72q-40 -85 -142 -85q-76 0 -121 41.5t-45 106.5q0 64 54 112.5t132 61.5q13 2 34 1l20 -1q28 -1 64 -14v80q0 37 -30.5 57t-76.5 20
q-33 0 -73 -12q-33 -11 -48 -21q22 -5 22 -27q0 -13 -13 -13q-3 0 -13 2q-26 8 -26 29q0 30 44 58q48 30 115 30q175 0 175 -142v-305q0 -28 15 -28q20 0 20 35h14q0 -27 -24.5 -47t-56.5 -20q-33 0 -40 81z" />
    <glyph glyph-name="b" unicode="b" horiz-adv-x="584" 
d="M139 398q65 99 173 99q104 0 169.5 -70.5t65.5 -181.5q0 -108 -72.5 -183.5t-175.5 -75.5q-73 0 -140 52q-70 53 -81 124q-15 94 -15 135v359q0 20 -17 20q-18 8 -18 17q37 3 111 13v-308zM140 236v-19q0 -88 43.5 -136.5t119.5 -48.5q75 0 119.5 57t44.5 150
t-44.5 152.5t-115.5 59.5q-72 0 -119.5 -61t-47.5 -154z" />
    <glyph glyph-name="c" unicode="c" 
d="M438 103q6 -4 16 -13.5l15 -14.5q-71 -88 -189 -88q-108 0 -179 72.5t-71 181.5q0 106 77.5 181t187.5 75q66 0 119 -34q49 -31 49 -63q0 -26 -38 -33q-11 -2 -15 -2q-20 0 -26 17q0 16 11.5 20t14.5 4l10 -1q-39 46 -124 46q-84 0 -133.5 -56t-49.5 -149
q0 -94 49.5 -153.5t128.5 -59.5q51 0 98 27q35 21 49 43z" />
    <glyph glyph-name="d" unicode="d" horiz-adv-x="584" 
d="M440 89q-19 -41 -65 -70q-51 -32 -111 -32q-97 0 -163.5 75t-66.5 183q0 103 71 177.5t172 74.5q103 0 159 -94v253q0 20 -19 20q-20 8 -20 17q38 3 115 13v-671q0 -21 34 -21v-14q-66 -6 -106 -10v99zM439 242q0 95 -45 152t-119 57q-71 0 -115 -59t-44 -150
q0 -93 43 -151t113 -58q74 0 120.5 59t46.5 150z" />
    <glyph glyph-name="e" unicode="e" 
d="M464 76q-71 -89 -196 -89q-101 0 -170.5 74t-69.5 181q0 109 68.5 182t171.5 73q83 0 141 -53q55 -50 65 -127l-360 -123q12 -62 43 -101q48 -60 125 -60q95 0 170 86q3 -7 6 -21.5t6 -21.5zM110 237l267 103q-18 111 -110 111q-75 0 -116 -53t-41 -147v-14z" />
    <glyph glyph-name="f" unicode="f" horiz-adv-x="306" 
d="M173 44q0 -22 31 -22h19l-1 -17q-28 -1 -85 -5t-86 -5v17h17q29 0 29 22v406h-79q0 -10 7 46h72v57q0 162 186 162q50 0 53 -38q2 -21 -6 -33q-8 -15 -29 -12q-11 1 -11 12q0 17 10 23l-9 1l-18 1q-100 6 -100 -92v-81h130v-46h-130v-396z" />
    <glyph glyph-name="g" unicode="g" 
d="M243 453q-55 0 -89.5 -34.5t-34.5 -90.5q0 -57 33 -91.5t90 -34.5q54 0 87 34.5t33 90.5t-33.5 91t-85.5 35zM40 326q0 74 56.5 122.5t140.5 48.5q31 0 65 -9q103 45 139 45q31 0 31 -27q0 -20 -21 -21l-25 -1q-53 0 -60 -24q6 -4 15 -11q60 -48 60 -121
q0 -70 -55.5 -115.5t-138.5 -45.5q-60 0 -95 16l-3 -1q-18 -6 -18 -15q0 -17 39 -23q24 -3 106.5 -5t134.5 -40q56 -41 56 -112q0 -79 -69.5 -129t-168.5 -50q-79 0 -148 42t-69 83q0 48 103 58q10 1 31 4q-77 -16 -77 -40q0 -29 49 -63q54 -38 117 -38q67 0 115 29
q53 32 53 84q0 49 -47 82t-126 31l-35 -1q-2 0 -60 2q-54 2 -54 28q0 17 22 44q20 24 38 34q-101 48 -101 139z" />
    <glyph glyph-name="h" unicode="h" horiz-adv-x="528" 
d="M458 44q0 -22 22 -22h13v-17q-72 -4 -111 -10v338q0 118 -104 118q-56 0 -95 -45.5t-39 -109.5v-252q0 -22 24 -22h15l-1 -17q-12 -1 -56 -5q-36 -3 -57 -3q-4 0 -36 -2v17h13q22 0 22 22v622q0 20 -17 20q-18 8 -18 17q37 4 111 13v-302q51 93 151 93q78 0 120.5 -47.5
t42.5 -134.5v-271z" />
    <glyph glyph-name="i" unicode="i" horiz-adv-x="250" 
d="M66 649q0 10 20.5 32t30.5 22t30.5 -22t20.5 -32t-20.5 -32t-30.5 -22t-30.5 22t-20.5 32zM163 44q0 -22 24 -22h14l1 -17q-25 -1 -76 -5t-77 -5v17h14q24 0 24 21v407q0 20 -19 20q-19 8 -19 18q38 4 114 15v-449z" />
    <glyph glyph-name="j" unicode="j" horiz-adv-x="250" 
d="M75 649q0 10 20.5 32t30.5 22t30.5 -22t20.5 -32t-20.5 -32t-30.5 -22t-30.5 22t-20.5 32zM96 440q0 20 -16 20q-16 7 -16 18q72 9 108 15v-495q0 -179 -180 -180q-26 0 -42.5 15t-16.5 32q0 36 21 46l12 3q10 0 10 -13q0 -25 -20 -27q5 -9 26 -10l21 -1q44 -2 68.5 25.5
t24.5 95.5v456z" />
    <glyph glyph-name="k" unicode="k" horiz-adv-x="473" 
d="M42 689v4q37 3 112 13v-464l197 206q14 11 14 17l-1 4q-5 9 -35 9v16q77 -9 136 -14v-16q-28 0 -44 -17l-167 -177l182 -219q13 -21 40 -21v-17q-14 -2 -44 -8.5t-45 -8.5l-206 242q-18 -18 -27 -29v-165q0 -22 23 -22h14l-1 -17q-25 -1 -75 -5t-75 -5v17h14q24 0 24 22
v622q0 20 -18 20q-18 8 -18 13z" />
    <glyph glyph-name="l" unicode="l" horiz-adv-x="250" 
d="M49 689v4q38 3 114 13v-662q0 -22 24 -22h14l1 -17q-25 -1 -76 -5t-77 -5v17h14q24 0 24 22v622q0 20 -19 20q-19 8 -19 13z" />
    <glyph glyph-name="m" unicode="m" horiz-adv-x="806" 
d="M727 44q0 -22 23 -22h14v-17q-65 -4 -113 -10v341q0 115 -95 115q-53 0 -84.5 -40t-31.5 -104v-263q0 -22 22 -22h13v-17q-63 -3 -112 -10v341q0 115 -96 115q-54 0 -85.5 -41t-31.5 -111v-255q0 -22 24 -22h15l1 -17q-25 -1 -76 -5t-77 -5v17h14q23 0 23 21v411
q0 20 -17 20q-18 9 -18 18q18 2 54 5q28 2 53 6v-86q49 90 141 90q108 0 140 -95q47 95 148 95q152 0 152 -173v-280z" />
    <glyph glyph-name="n" unicode="n" horiz-adv-x="528" 
d="M458 44q0 -22 22 -22h13l1 -17q-73 -4 -112 -10v338q0 118 -104 118q-56 0 -95 -45.5t-39 -109.5v-252q0 -22 24 -22h15v-17q-25 -1 -75 -5t-75 -5v17h13q22 0 22 21v411q0 20 -17 20q-18 9 -18 18l27 3t26 2q26 2 54 6v-89q61 93 155 93q78 0 120.5 -47.5t42.5 -134.5
v-271z" />
    <glyph glyph-name="o" unicode="o" horiz-adv-x="556" 
d="M529 242q0 -107 -73 -181t-178 -74t-177.5 74t-72.5 181t72.5 181t177.5 74q106 0 178.5 -74t72.5 -181zM446 242q0 96 -45 152.5t-123 56.5t-122.5 -56.5t-44.5 -152.5t44.5 -152.5t122.5 -56.5t123 56.5t45 152.5z" />
    <glyph glyph-name="p" unicode="p" horiz-adv-x="584" 
d="M140 81v-215q0 -22 29 -22h17v-17q-27 -2 -81 -5.5t-81 -4.5v17h15q26 0 26 22v588q0 20 -19 20q-19 10 -19 18q18 2 55 5q26 1 55 6v-107q55 111 169 111q102 0 169.5 -74t67.5 -184q0 -105 -68.5 -178.5t-166.5 -73.5q-115 0 -168 94zM141 223q0 -85 45 -137.5
t117 -52.5t116 56.5t44 146.5q0 97 -43 156t-117 59q-70 0 -116 -60.5t-46 -155.5v-12z" />
    <glyph glyph-name="q" unicode="q" horiz-adv-x="556" 
d="M422 73q-57 -86 -158 -86q-104 0 -171 72t-67 183q0 102 74 178.5t173 76.5q48 0 95 -27q41 -24 65 -58q17 32 22 73q28 4 44 6v-625q0 -22 24 -22h15v-17q-26 -2 -78 -5q-25 -2 -76 -5v17h15q23 0 23 22v217zM423 235v8q0 97 -42.5 152.5t-114.5 55.5q-74 0 -115.5 -56
t-41.5 -154q0 -94 42.5 -151t114.5 -57q70 0 113.5 54.5t43.5 147.5z" />
    <glyph glyph-name="r" unicode="r" horiz-adv-x="334" 
d="M147 44q0 -18 17 -21q2 -1 31 -1v-17q-27 -1 -81 -5t-81 -5v17q22 0 26 1q12 4 12 20v411q0 20 -18 20q-18 10 -18 18q66 4 109 11v-129q40 133 154 133q48 0 48 -35q0 -16 -16.5 -29.5t-32.5 -13.5q-15 0 -15 11q0 12 12 20q-2 0 -7 1h-8q-69 0 -105 -98
q-27 -73 -27 -156v-153z" />
    <glyph glyph-name="s" unicode="s" horiz-adv-x="417" 
d="M385 143q0 -70 -50 -113t-132 -43q-86 0 -153 58q-12 0 -14 -16h-14v86q6 4 18 10l18 9q43 -101 148 -101q46 0 78.5 24.5t32.5 60.5q0 41 -31 63t-99 36q-157 32 -157 141q0 60 48.5 99.5t116.5 39.5q43 0 89 -17q36 -14 55 -30q9 0 11 13h16v-73q-16 -12 -33 -23
q-39 84 -136 84q-48 0 -73.5 -20.5t-25.5 -54.5q0 -32 26 -52t93 -35q94 -21 131 -55.5t37 -90.5z" />
    <glyph glyph-name="t" unicode="t" horiz-adv-x="306" 
d="M149 113q0 -44 17 -61.5t59 -17.5q33 0 57 67l14 -27q-9 -22 -21 -39q-28 -40 -68 -45q-11 -1 -21 -1q-54 0 -83.5 36.5t-29.5 97.5v317h-69l7 46q51 0 74 32q16 12 30 61q15 57 18 62h16v-155h138v-46h-138v-327z" />
    <glyph glyph-name="u" unicode="u" horiz-adv-x="528" 
d="M459 42q0 -21 34 -21v-17q-36 -3 -107 -7v88q-59 -98 -159 -98q-77 0 -118 48t-41 138v268q0 22 -23 20l-12 -1v18q19 1 55.5 4t55.5 4v-328q0 -65 24 -95t78 -30q64 0 96.5 44t40.5 136v227q0 20 -26 20h-14v18q39 3 116 8v-444z" />
    <glyph glyph-name="v" unicode="v" horiz-adv-x="472" 
d="M445 439l-199 -445h-24l-204 455q-6 13 -12.5 16t-23.5 4v17q74 2 147 6v-17q-28 0 -31.5 -6t-3.5 -8q0 -10 3 -15l150 -332l145 322q6 13 6 21q0 3 -2 9q-5 9 -33 9v17q63 -4 126 -6v-17q-31 0 -44 -30z" />
    <glyph glyph-name="w" unicode="w" horiz-adv-x="778" 
d="M422 452l139 -322l129 311q4 7 4 16q0 18 -36 18l-1 17q63 -4 126 -6v-17q-32 0 -42 -24l-184 -451h-21l-151 362l-151 -362h-21l-181 454q-4 21 -39 21l1 17q71 2 141 6v-17q-21 0 -26 -5l-1 -5q0 -9 3 -17l126 -319l138 323q-3 10 -11 21q-6 2 -28 2v17h115v-17
q-27 0 -31 -4l-1 -5q0 -9 3 -14z" />
    <glyph glyph-name="x" unicode="x" 
d="M427 438l-143 -181l169 -215q11 -14 42 -14l-1 -17q-25 -2 -75 -7t-75 -7v17q27 0 28 5v3q0 2 -5 14l-130 164l-119 -155q-8 -10 -8 -21q1 -9 31 -9l1 -17l-138 12v17q39 0 59 25l144 187l-160 203q-11 14 -16 16.5t-23 2.5l-1 17q25 2 74 7t73 7v-17q-25 0 -28.5 -3
t-3.5 -5q0 -6 6 -14l126 -160l118 150q8 13 8 19l-1 4q-5 8 -29 8l1 17l132 -12v-17q-37 0 -56 -24z" />
    <glyph glyph-name="y" unicode="y" horiz-adv-x="472" 
d="M363 475v17q62 -4 123 -6v-17q-19 0 -26.5 -5t-12.5 -25l-237 -522q-24 -52 -38 -70q-23 -29 -56 -29q-20 0 -33.5 12.5t-13.5 30.5l-1 11q0 21 15 21q20 0 20 -17q0 -22 -24 -29q1 -2 4 -4t10 -2q35 0 57 61l65 139l-193 406q-7 22 -35 22l-1 17q64 0 144 5v-17
q-28 0 -33 -5l-1 -5q0 -11 8 -27l151 -310l139 313q4 9 4 19q0 6 -5 11q-12 5 -30 5z" />
    <glyph glyph-name="z" unicode="z" horiz-adv-x="472" 
d="M49 483h396v-14l-320 -423h216q71 0 90 73h14l-8 -119h-424v19l314 418h-206q-56 0 -65 -57h-14z" />
    <glyph glyph-name="braceleft" unicode="{" horiz-adv-x="333" 
d="M49 251v20q30 5 48.5 33t18.5 69v185q0 127 111 127h28v-33h-16q-58 -7 -58 -106v-145q0 -66 -17.5 -96.5t-60.5 -43.5q43 -13 60 -42q18 -32 18 -98v-145q0 -99 58 -106h16v-33h-28q-111 0 -111 127v185q0 41 -18.5 69t-48.5 33z" />
    <glyph glyph-name="bar" unicode="|" horiz-adv-x="222" 
d="M82 0v687h57v-687h-57z" />
    <glyph glyph-name="braceright" unicode="}" horiz-adv-x="333" 
d="M286 271v-20q-31 -5 -50.5 -33t-19.5 -69v-185q0 -127 -112 -127h-27v33h15q59 7 59 106v145q0 66 19 98q18 29 61 42q-43 13 -61.5 43.5t-18.5 96.5v145q0 99 -59 106h-15v33h27q112 0 112 -127v-185q0 -41 19.5 -69t50.5 -33z" />
    <glyph glyph-name="asciitilde" unicode="~" horiz-adv-x="600" 
d="M191 248q-57 0 -86 -72q-16 17 -36 41q36 86 121 86q45 0 115 -33.5t104 -33.5q55 0 86 72l37 -41q-16 -36 -47 -60q-34 -26 -74 -26q-49 0 -119 33.5t-101 33.5z" />
    <glyph glyph-name="Adieresis" unicode="&#xc4;" horiz-adv-x="667" 
d="M430 302l-112 246l-110 -246h222zM681 17v-17l-169 -8v17q32 0 38 6q3 3 3 9q0 7 -5 22l-94 203h-269l-85 -191q-6 -13 -6 -25q0 -24 54 -24v-17l-163 8v17q46 0 61 49l277 631h18l286 -639q10 -23 20.5 -32t33.5 -9zM239 839q10 0 28 -19.5t18 -30.5t-18 -30.5
t-28 -19.5t-28 19.5t-18 30.5t18 30.5t28 19.5zM426 839q10 0 28 -19.5t18 -30.5t-18 -30.5t-28 -19.5t-28 19.5t-18 30.5t18 30.5t28 19.5z" />
    <glyph glyph-name="Aring" unicode="&#xc5;" horiz-adv-x="667" 
d="M430 302l-112 246l-110 -246h222zM681 17v-17l-169 -8v17q32 0 38 6q3 3 3 9q0 7 -5 22l-94 203h-269l-85 -191q-6 -13 -6 -25q0 -24 54 -24v-17l-163 8v17q46 0 61 49l277 631h18l286 -639q10 -23 20.5 -32t33.5 -9zM334 925q41 0 70.5 -29t29.5 -70t-29.5 -70
t-70.5 -29t-70 29t-29 70t29 70t70 29zM334 891q-28 0 -46.5 -18.5t-18.5 -46.5t18.5 -46.5t46.5 -18.5q29 0 47.5 18.5t18.5 46.5t-18.5 46.5t-47.5 18.5z" />
    <glyph glyph-name="Ccedilla" unicode="&#xc7;" horiz-adv-x="612" 
d="M126 344q0 -135 68.5 -223t175.5 -88q71 0 118.5 39t62.5 103q3 -9 10 -38q-15 -74 -67.5 -113t-133.5 -39q-138 0 -232 102.5t-94 254.5q0 147 98 252.5t234 105.5q45 0 99 -20l54 -24q13 0 20 19h12q0 -109 -9 -154q-64 131 -174 131q-113 0 -177.5 -83.5t-64.5 -224.5
zM253 -190q5 10 14 31q36 -13 65 -13q60 0 60 42q0 41 -51 38l-19 -1q-7 -2 -18 -3l-11 9l56 96h36l-44 -70q6 3 18 5l18 1q35 2 58 -19t23 -53q0 -37 -32.5 -59.5t-84.5 -22.5q-40 0 -88 19z" />
    <glyph glyph-name="Eacute" unicode="&#xc9;" horiz-adv-x="584" 
d="M52 0v17h17q29 0 29 33v587q0 33 -29 33h-17v17h468q2 -70 9 -154h-15q-27 106 -116 106h-159q-59 0 -59 -35v-226h142q41 0 57 12.5t21 47.5h14v-169h-14q-5 35 -21 47.5t-57 12.5h-142v-249q0 -32 38 -32h172q67 0 99 28q29 25 42 84h16q-4 -42 -9 -160h-486zM238 731
l87 96q39 43 62 59q43 0 52 -25q-18 -21 -69 -62l-86 -68h-46z" />
    <glyph glyph-name="Ntilde" unicode="&#xd1;" horiz-adv-x="695" 
d="M547 159v480q0 33 -30 33h-20v17h145v-11h-18q-26 0 -26 -33v-658h-18l-7 11l-422 549v-494q0 -33 32 -33h21v-23h-154v17h20q30 0 30 33v611l-8 8q-10 13 -28 13h-14v17h86zM518 846q-18 -98 -95 -98q-34 0 -78.5 22.5t-64.5 22.5q-40 0 -51 -46h-33q18 98 95 98
q31 0 76 -22.5t66 -22.5q41 0 52 46h33z" />
    <glyph glyph-name="Odieresis" unicode="&#xd6;" horiz-adv-x="750" 
d="M627 343q0 141 -68.5 225.5t-184.5 84.5q-115 0 -183.5 -85t-68.5 -225t68.5 -225t183.5 -85q116 0 184.5 84.5t68.5 225.5zM718 343q0 -150 -99.5 -254t-244.5 -104q-144 0 -243.5 104t-99.5 254t99.5 254t243.5 104q145 0 244.5 -104t99.5 -254zM278 839q10 0 28 -19.5
t18 -30.5t-18 -30.5t-28 -19.5t-28 19.5t-18 30.5t18 30.5t28 19.5zM465 839q10 0 28 -19.5t18 -30.5t-18 -30.5t-28 -19.5t-28 19.5t-18 30.5t18 30.5t28 19.5z" />
    <glyph glyph-name="Udieresis" unicode="&#xdc;" horiz-adv-x="667" 
d="M529 237v393q0 42 -37 42h-17v17q75 2 150 6v-17h-15q-33 0 -33 -42v-410q0 -115 -65 -178t-182 -63q-118 0 -180.5 57t-62.5 167v430q0 33 -29 33h-19l1 17q89 2 177 6v-17h-19q-29 0 -29 -33v-433q0 -86 43.5 -132.5t123.5 -46.5q94 0 143.5 52.5t49.5 151.5zM244 839
q10 0 28 -19.5t18 -30.5t-18 -30.5t-28 -19.5t-28 19.5t-18 30.5t18 30.5t28 19.5zM431 839q10 0 28 -19.5t18 -30.5t-18 -30.5t-28 -19.5t-28 19.5t-18 30.5t18 30.5t28 19.5z" />
    <glyph glyph-name="aacute" unicode="&#xe1;" horiz-adv-x="472" 
d="M325 171v43q-6 31 -27.5 46t-41.5 13l-12 -1q-60 -5 -100 -44.5t-40 -91.5q0 -43 27.5 -71t74.5 -28q51 0 85 39t34 95zM329 72q-40 -85 -142 -85q-76 0 -121 41.5t-45 106.5q0 64 54 112.5t132 61.5q13 2 34 1l20 -1q28 -1 64 -14v80q0 37 -30.5 57t-76.5 20
q-33 0 -73 -12q-33 -11 -48 -21q22 -5 22 -27q0 -13 -13 -13q-3 0 -13 2q-26 8 -26 29q0 30 44 58q48 30 115 30q175 0 175 -142v-305q0 -28 15 -28q20 0 20 35h14q0 -27 -24.5 -47t-56.5 -20q-33 0 -40 81zM162 552l87 96q39 43 62 59q43 0 52 -25q-18 -21 -69 -62l-86 -68
h-46z" />
    <glyph glyph-name="agrave" unicode="&#xe0;" horiz-adv-x="472" 
d="M325 171v43q-6 31 -27.5 46t-41.5 13l-12 -1q-60 -5 -100 -44.5t-40 -91.5q0 -43 27.5 -71t74.5 -28q51 0 85 39t34 95zM329 72q-40 -85 -142 -85q-76 0 -121 41.5t-45 106.5q0 64 54 112.5t132 61.5q13 2 34 1l20 -1q28 -1 64 -14v80q0 37 -30.5 57t-76.5 20
q-33 0 -73 -12q-33 -11 -48 -21q22 -5 22 -27q0 -13 -13 -13q-3 0 -13 2q-26 8 -26 29q0 30 44 58q48 30 115 30q175 0 175 -142v-305q0 -28 15 -28q20 0 20 35h14q0 -27 -24.5 -47t-56.5 -20q-33 0 -40 81zM299 552h-47l-87 68q-51 41 -69 62q9 25 52 25q24 -15 64 -59z
" />
    <glyph glyph-name="acircumflex" unicode="&#xe2;" horiz-adv-x="472" 
d="M325 171v43q-6 31 -27.5 46t-41.5 13l-12 -1q-60 -5 -100 -44.5t-40 -91.5q0 -43 27.5 -71t74.5 -28q51 0 85 39t34 95zM329 72q-40 -85 -142 -85q-76 0 -121 41.5t-45 106.5q0 64 54 112.5t132 61.5q13 2 34 1l20 -1q28 -1 64 -14v80q0 37 -30.5 57t-76.5 20
q-33 0 -73 -12q-33 -11 -48 -21q22 -5 22 -27q0 -13 -13 -13q-3 0 -13 2q-26 8 -26 29q0 30 44 58q48 30 115 30q175 0 175 -142v-305q0 -28 15 -28q20 0 20 35h14q0 -27 -24.5 -47t-56.5 -20q-33 0 -40 81zM79 552l119 154h62l120 -154h-49l-102 102l-101 -102h-49z" />
    <glyph glyph-name="adieresis" unicode="&#xe4;" horiz-adv-x="472" 
d="M325 171v43q-6 31 -27.5 46t-41.5 13l-12 -1q-60 -5 -100 -44.5t-40 -91.5q0 -43 27.5 -71t74.5 -28q51 0 85 39t34 95zM329 72q-40 -85 -142 -85q-76 0 -121 41.5t-45 106.5q0 64 54 112.5t132 61.5q13 2 34 1l20 -1q28 -1 64 -14v80q0 37 -30.5 57t-76.5 20
q-33 0 -73 -12q-33 -11 -48 -21q22 -5 22 -27q0 -13 -13 -13q-3 0 -13 2q-26 8 -26 29q0 30 44 58q48 30 115 30q175 0 175 -142v-305q0 -28 15 -28q20 0 20 35h14q0 -27 -24.5 -47t-56.5 -20q-33 0 -40 81zM135 660q10 0 28 -19.5t18 -30.5t-18 -30.5t-28 -19.5t-28 19.5
t-18 30.5t18 30.5t28 19.5zM322 660q10 0 28 -19.5t18 -30.5t-18 -30.5t-28 -19.5t-28 19.5t-18 30.5t18 30.5t28 19.5z" />
    <glyph glyph-name="atilde" unicode="&#xe3;" horiz-adv-x="472" 
d="M325 171v43q-6 31 -27.5 46t-41.5 13l-12 -1q-60 -5 -100 -44.5t-40 -91.5q0 -43 27.5 -71t74.5 -28q51 0 85 39t34 95zM329 72q-40 -85 -142 -85q-76 0 -121 41.5t-45 106.5q0 64 54 112.5t132 61.5q13 2 34 1l20 -1q28 -1 64 -14v80q0 37 -30.5 57t-76.5 20
q-33 0 -73 -12q-33 -11 -48 -21q22 -5 22 -27q0 -13 -13 -13q-3 0 -13 2q-26 8 -26 29q0 30 44 58q48 30 115 30q175 0 175 -142v-305q0 -28 15 -28q20 0 20 35h14q0 -27 -24.5 -47t-56.5 -20q-33 0 -40 81zM394 667q-18 -98 -95 -98q-34 0 -78.5 22.5t-64.5 22.5
q-40 0 -51 -46h-33q18 98 95 98q31 0 76 -22.5t66 -22.5q41 0 52 46h33z" />
    <glyph glyph-name="aring" unicode="&#xe5;" horiz-adv-x="472" 
d="M325 171v43q-6 31 -27.5 46t-41.5 13l-12 -1q-60 -5 -100 -44.5t-40 -91.5q0 -43 27.5 -71t74.5 -28q51 0 85 39t34 95zM329 72q-40 -85 -142 -85q-76 0 -121 41.5t-45 106.5q0 64 54 112.5t132 61.5q13 2 34 1l20 -1q28 -1 64 -14v80q0 37 -30.5 57t-76.5 20
q-33 0 -73 -12q-33 -11 -48 -21q22 -5 22 -27q0 -13 -13 -13q-3 0 -13 2q-26 8 -26 29q0 30 44 58q48 30 115 30q175 0 175 -142v-305q0 -28 15 -28q20 0 20 35h14q0 -27 -24.5 -47t-56.5 -20q-33 0 -40 81zM230 746q41 0 70.5 -29t29.5 -70t-29.5 -70t-70.5 -29t-70 29
t-29 70t29 70t70 29zM230 712q-28 0 -46.5 -18.5t-18.5 -46.5t18.5 -46.5t46.5 -18.5q29 0 47.5 18.5t18.5 46.5t-18.5 46.5t-47.5 18.5z" />
    <glyph glyph-name="ccedilla" unicode="&#xe7;" 
d="M438 103q6 -4 16 -13.5l15 -14.5q-71 -88 -189 -88q-108 0 -179 72.5t-71 181.5q0 106 77.5 181t187.5 75q66 0 119 -34q49 -31 49 -63q0 -26 -38 -33q-11 -2 -15 -2q-20 0 -26 17q0 16 11.5 20t14.5 4l10 -1q-39 46 -124 46q-84 0 -133.5 -56t-49.5 -149
q0 -94 49.5 -153.5t128.5 -59.5q51 0 98 27q35 21 49 43zM172 -190q5 10 14 31q36 -13 65 -13q60 0 60 42q0 41 -51 38l-19 -1q-7 -2 -18 -3l-11 9l56 96h36l-44 -70q6 3 18 5l18 1q35 2 58 -19t23 -53q0 -37 -32.5 -59.5t-84.5 -22.5q-40 0 -88 19z" />
    <glyph glyph-name="eacute" unicode="&#xe9;" 
d="M464 76q-71 -89 -196 -89q-101 0 -170.5 74t-69.5 181q0 109 68.5 182t171.5 73q83 0 141 -53q55 -50 65 -127l-360 -123q12 -62 43 -101q48 -60 125 -60q95 0 170 86q3 -7 6 -21.5t6 -21.5zM110 237l267 103q-18 111 -110 111q-75 0 -116 -53t-41 -147v-14zM196 552
l87 96q39 43 62 59q43 0 52 -25q-18 -21 -69 -62l-86 -68h-46z" />
    <glyph glyph-name="egrave" unicode="&#xe8;" 
d="M464 76q-71 -89 -196 -89q-101 0 -170.5 74t-69.5 181q0 109 68.5 182t171.5 73q83 0 141 -53q55 -50 65 -127l-360 -123q12 -62 43 -101q48 -60 125 -60q95 0 170 86q3 -7 6 -21.5t6 -21.5zM110 237l267 103q-18 111 -110 111q-75 0 -116 -53t-41 -147v-14zM333 552h-47
l-87 68q-51 41 -69 62q9 25 52 25q24 -15 64 -59z" />
    <glyph glyph-name="ecircumflex" unicode="&#xea;" 
d="M464 76q-71 -89 -196 -89q-101 0 -170.5 74t-69.5 181q0 109 68.5 182t171.5 73q83 0 141 -53q55 -50 65 -127l-360 -123q12 -62 43 -101q48 -60 125 -60q95 0 170 86q3 -7 6 -21.5t6 -21.5zM110 237l267 103q-18 111 -110 111q-75 0 -116 -53t-41 -147v-14zM113 552
l119 154h62l120 -154h-49l-102 102l-101 -102h-49z" />
    <glyph glyph-name="edieresis" unicode="&#xeb;" 
d="M464 76q-71 -89 -196 -89q-101 0 -170.5 74t-69.5 181q0 109 68.5 182t171.5 73q83 0 141 -53q55 -50 65 -127l-360 -123q12 -62 43 -101q48 -60 125 -60q95 0 170 86q3 -7 6 -21.5t6 -21.5zM110 237l267 103q-18 111 -110 111q-75 0 -116 -53t-41 -147v-14zM169 660
q10 0 28 -19.5t18 -30.5t-18 -30.5t-28 -19.5t-28 19.5t-18 30.5t18 30.5t28 19.5zM356 660q10 0 28 -19.5t18 -30.5t-18 -30.5t-28 -19.5t-28 19.5t-18 30.5t18 30.5t28 19.5z" />
    <glyph glyph-name="iacute" unicode="&#xed;" horiz-adv-x="250" 
d="M165 44q0 -22 24 -22h14v-17q-25 -2 -76 -5q-25 -2 -76 -5v17h14q24 0 24 21v407q0 20 -19 20q-19 8 -19 18q38 4 114 15v-449zM50 552l87 96q39 43 62 59q43 0 52 -25q-18 -21 -69 -62l-86 -68h-46z" />
    <glyph glyph-name="igrave" unicode="&#xec;" horiz-adv-x="250" 
d="M165 44q0 -22 24 -22h14v-17q-25 -2 -76 -5q-25 -2 -76 -5v17h14q24 0 24 21v407q0 20 -19 20q-19 8 -19 18q38 4 114 15v-449zM187 552h-47l-87 68q-51 41 -69 62q9 25 52 25q24 -15 64 -59z" />
    <glyph glyph-name="icircumflex" unicode="&#xee;" horiz-adv-x="250" 
d="M165 44q0 -22 24 -22h14v-17q-25 -2 -76 -5q-25 -2 -76 -5v17h14q24 0 24 21v407q0 20 -19 20q-19 8 -19 18q38 4 114 15v-449zM-33 552l119 154h62l120 -154h-49l-102 102l-101 -102h-49z" />
    <glyph glyph-name="idieresis" unicode="&#xef;" horiz-adv-x="250" 
d="M165 44q0 -22 24 -22h14v-17q-25 -2 -76 -5q-25 -2 -76 -5v17h14q24 0 24 21v407q0 20 -19 20q-19 8 -19 18q38 4 114 15v-449zM23 660q10 0 28 -19.5t18 -30.5t-18 -30.5t-28 -19.5t-28 19.5t-18 30.5t18 30.5t28 19.5zM210 660q10 0 28 -19.5t18 -30.5t-18 -30.5
t-28 -19.5t-28 19.5t-18 30.5t18 30.5t28 19.5z" />
    <glyph glyph-name="ntilde" unicode="&#xf1;" horiz-adv-x="528" 
d="M458 44q0 -22 22 -22h13l1 -17q-73 -4 -112 -10v338q0 118 -104 118q-56 0 -95 -45.5t-39 -109.5v-252q0 -22 24 -22h15v-17q-25 -1 -75 -5t-75 -5v17h13q22 0 22 21v411q0 20 -17 20q-18 9 -18 18l27 3t26 2q26 2 54 6v-89q61 93 155 93q78 0 120.5 -47.5t42.5 -134.5
v-271zM433 667q-18 -98 -95 -98q-34 0 -78.5 22.5t-64.5 22.5q-40 0 -51 -46h-33q18 98 95 98q31 0 76 -22.5t66 -22.5q41 0 52 46h33z" />
    <glyph glyph-name="oacute" unicode="&#xf3;" horiz-adv-x="556" 
d="M529 242q0 -107 -73 -181t-178 -74t-177.5 74t-72.5 181t72.5 181t177.5 74q106 0 178.5 -74t72.5 -181zM446 242q0 96 -45 152.5t-123 56.5t-122.5 -56.5t-44.5 -152.5t44.5 -152.5t122.5 -56.5t123 56.5t45 152.5zM209 552l87 96q39 43 62 59q43 0 52 -25
q-18 -21 -69 -62l-86 -68h-46z" />
    <glyph glyph-name="ograve" unicode="&#xf2;" horiz-adv-x="556" 
d="M529 242q0 -107 -73 -181t-178 -74t-177.5 74t-72.5 181t72.5 181t177.5 74q106 0 178.5 -74t72.5 -181zM446 242q0 96 -45 152.5t-123 56.5t-122.5 -56.5t-44.5 -152.5t44.5 -152.5t122.5 -56.5t123 56.5t45 152.5zM346 552h-47l-87 68q-51 41 -69 62q9 25 52 25
q24 -15 64 -59z" />
    <glyph glyph-name="ocircumflex" unicode="&#xf4;" horiz-adv-x="556" 
d="M529 242q0 -107 -73 -181t-178 -74t-177.5 74t-72.5 181t72.5 181t177.5 74q106 0 178.5 -74t72.5 -181zM446 242q0 96 -45 152.5t-123 56.5t-122.5 -56.5t-44.5 -152.5t44.5 -152.5t122.5 -56.5t123 56.5t45 152.5zM126 552l119 154h62l120 -154h-49l-102 102l-101 -102
h-49z" />
    <glyph glyph-name="odieresis" unicode="&#xf6;" horiz-adv-x="556" 
d="M529 242q0 -107 -73 -181t-178 -74t-177.5 74t-72.5 181t72.5 181t177.5 74q106 0 178.5 -74t72.5 -181zM446 242q0 96 -45 152.5t-123 56.5t-122.5 -56.5t-44.5 -152.5t44.5 -152.5t122.5 -56.5t123 56.5t45 152.5zM182 660q10 0 28 -19.5t18 -30.5t-18 -30.5t-28 -19.5
t-28 19.5t-18 30.5t18 30.5t28 19.5zM369 660q10 0 28 -19.5t18 -30.5t-18 -30.5t-28 -19.5t-28 19.5t-18 30.5t18 30.5t28 19.5z" />
    <glyph glyph-name="otilde" unicode="&#xf5;" horiz-adv-x="556" 
d="M529 242q0 -107 -73 -181t-178 -74t-177.5 74t-72.5 181t72.5 181t177.5 74q106 0 178.5 -74t72.5 -181zM446 242q0 96 -45 152.5t-123 56.5t-122.5 -56.5t-44.5 -152.5t44.5 -152.5t122.5 -56.5t123 56.5t45 152.5zM441 667q-18 -98 -95 -98q-34 0 -78.5 22.5
t-64.5 22.5q-40 0 -51 -46h-33q18 98 95 98q31 0 76 -22.5t66 -22.5q41 0 52 46h33z" />
    <glyph glyph-name="uacute" unicode="&#xfa;" horiz-adv-x="528" 
d="M459 42q0 -21 34 -21v-17q-36 -3 -107 -7v88q-59 -98 -159 -98q-77 0 -118 48t-41 138v268q0 22 -23 20l-12 -1v18q19 1 55.5 4t55.5 4v-328q0 -65 24 -95t78 -30q64 0 96.5 44t40.5 136v227q0 20 -26 20h-14v18q39 3 116 8v-444zM192 552l87 96q39 43 62 59q43 0 52 -25
q-18 -21 -69 -62l-86 -68h-46z" />
    <glyph glyph-name="ugrave" unicode="&#xf9;" horiz-adv-x="528" 
d="M459 42q0 -21 34 -21v-17q-36 -3 -107 -7v88q-59 -98 -159 -98q-77 0 -118 48t-41 138v268q0 22 -23 20l-12 -1v18q19 1 55.5 4t55.5 4v-328q0 -65 24 -95t78 -30q64 0 96.5 44t40.5 136v227q0 20 -26 20h-14v18q39 3 116 8v-444zM329 552h-47l-87 68q-51 41 -69 62
q9 25 52 25q24 -15 64 -59z" />
    <glyph glyph-name="ucircumflex" unicode="&#xfb;" horiz-adv-x="528" 
d="M459 42q0 -21 34 -21v-17q-36 -3 -107 -7v88q-59 -98 -159 -98q-77 0 -118 48t-41 138v268q0 22 -23 20l-12 -1v18q19 1 55.5 4t55.5 4v-328q0 -65 24 -95t78 -30q64 0 96.5 44t40.5 136v227q0 20 -26 20h-14v18q39 3 116 8v-444zM109 552l119 154h62l120 -154h-49
l-102 102l-101 -102h-49z" />
    <glyph glyph-name="udieresis" unicode="&#xfc;" horiz-adv-x="528" 
d="M459 42q0 -21 34 -21v-17q-36 -3 -107 -7v88q-59 -98 -159 -98q-77 0 -118 48t-41 138v268q0 22 -23 20l-12 -1v18q19 1 55.5 4t55.5 4v-328q0 -65 24 -95t78 -30q64 0 96.5 44t40.5 136v227q0 20 -26 20h-14v18q39 3 116 8v-444zM165 660q10 0 28 -19.5t18 -30.5
t-18 -30.5t-28 -19.5t-28 19.5t-18 30.5t18 30.5t28 19.5zM352 660q10 0 28 -19.5t18 -30.5t-18 -30.5t-28 -19.5t-28 19.5t-18 30.5t18 30.5t28 19.5z" />
    <glyph glyph-name="dagger" unicode="&#x2020;" 
d="M292 669q-13 -63 -31 -190q28 1 79 14.5t76 14.5q22 -10 22 -43t-22 -40q-24 1 -74 14.5t-81 14.5q5 -121 33 -184q-32 -177 -32 -426h-25q0 249 -32 426q28 63 33 184q-31 -1 -81.5 -14.5t-74.5 -14.5q-21 7 -21 40t22 43q25 -1 75.5 -14.5t79.5 -14.5q-6 67 -16 109
q-14 55 -15 81q11 24 43 24t42 -24z" />
    <glyph glyph-name="degree" unicode="&#xb0;" horiz-adv-x="400" 
d="M201 710q60 0 102 -42.5t42 -102.5t-42 -102t-102 -42t-102 42t-42 102t42 102.5t102 42.5zM201 664q-41 0 -70 -29t-29 -70t29 -69.5t70 -28.5t70 28.5t29 69.5t-29 70t-70 29z" />
    <glyph glyph-name="cent" unicode="&#xa2;" 
d="M268 5l-21 -3q-8 -1 -22 -3v152q-70 7 -119 57q-57 58 -57 147q0 77 50 134t126 71v121q14 2 22 3l21 3v-125q42 -1 78 -23q39 -25 50 -62q-8 -38 -40 -44q-10 -2 -15 -2q-20 0 -26 17q0 16 11.5 20t14.5 4l10 -1q-26 45 -82 45h-1v-320q34 2 67 28q26 22 34 42
q6 -4 16 -13.5l15 -14.5q-50 -79 -132 -88v-145zM225 201v310q-37 -12 -57 -36q-36 -43 -36 -114q0 -74 35 -119q23 -29 58 -41z" />
    <glyph glyph-name="sterling" unicode="&#xa3;" 
d="M-10 71q0 19 15.5 31.5t41.5 12.5q47 0 131 -41q17 30 17 45q0 161 -33 189h-138q3 13 10 49h108l-43 61q-25 41 -25 78q0 93 47.5 149t135.5 56q50 0 88.5 -27.5t52.5 -75.5q4 -13 11 -41q-8 -31 -43 -31h-5q-31 0 -31 22q0 25 23 27q-7 39 -34 61t-66 22q-47 0 -76 -36
q-32 -38 -32 -103q0 -40 36 -90l58 -72h144v-49h-127q16 -78 16 -179q0 -35 -40 -68q53 -11 88 -11q109 0 131 114l44 -20q-33 -146 -168 -146q-97 0 -190 17q-34 -21 -71 -21q-34 0 -55 22t-21 55zM160 46q-45 29 -65 29q-23 0 -23 -20q0 -25 42 -25q24 0 46 16z" />
    <glyph glyph-name="section" unicode="&#xa7;" 
d="M192 407l-12 1q-26 2 -44.5 -16.5t-18.5 -50.5q0 -59 78 -131q24 -27 57 -48.5t53 -21.5h10q30 0 47.5 18t17.5 48q0 53 -78 132q-64 65 -110 69zM310 105q77 -62 77 -132q0 -58 -42.5 -92.5t-107.5 -34.5q-52 0 -92.5 29.5t-53.5 77.5q8 30 37 33l9 1q21 0 28 -18
q0 -8 -8 -16t-9 -12q7 -24 34.5 -42.5t58.5 -18.5q33 0 61 21.5t28 57.5q0 42 -87 117l-97 85q-85 76 -85 164q0 49 35 82t91 35q-77 62 -77 132q0 58 42 94q40 33 103 33q51 0 90.5 -29.5t51.5 -77.5q-10 -30 -38 -33l-9 -1q-21 0 -27 18q0 9 8.5 17.5t8.5 10.5
q-7 24 -33 42.5t-56 18.5q-31 0 -56 -20q-28 -23 -28 -59q0 -41 86 -117l98 -85q85 -76 85 -164q0 -49 -35 -82t-91 -35z" />
    <glyph glyph-name="bullet" unicode="&#x2022;" 
d="M249 516q72 0 122 -50t50 -122t-50 -122t-122 -50t-122 50t-50 122t50 122t122 50z" />
    <glyph glyph-name="paragraph" unicode="&#xb6;" horiz-adv-x="600" 
d="M465 -155h-58v801h-91v-801h-59v450q-93 1 -147 53.5t-54 143.5q0 103 53.5 149t169.5 46h227v-32q-41 0 -41 -39v-771z" />
    <glyph glyph-name="germandbls" unicode="&#xdf;" horiz-adv-x="584" 
d="M164 -1q-18 -2 -56 -4l-56 -2v17q22 3 27 5q9 4 9 16v365h-76l8 46h68v61q0 92 61 148q58 53 145 53t146 -51t59 -124q0 -54 -60 -98l-79 -52l109 -69q81 -62 81 -135q0 -81 -51 -132q-54 -55 -144 -55q-46 0 -92 29q-42 25 -52 52q-5 0 -10 -12h-14l-5 113l35 4
q12 -65 47 -101q37 -39 93 -39q60 0 96 34t36 83q0 118 -177 136q-60 23 -60 57v27q0 20 25 31q16 7 33 13q116 13 117 114q0 62 -40 97q-36 32 -92 32q-131 0 -131 -177v-482z" />
    <glyph glyph-name="registered" unicode="&#xae;" horiz-adv-x="800" 
d="M333 354h74q84 0 84 81q0 75 -82 75h-76v-156zM399 695q146 0 249.5 -103.5t103.5 -249.5q0 -147 -103.5 -250t-249.5 -103t-249.5 103t-103.5 249q0 147 103.5 250.5t249.5 103.5zM399 649q-123 0 -210.5 -90t-87.5 -217t87.5 -217t210.5 -90t210.5 90t87.5 217
t-87.5 217t-210.5 90zM358 143h-108v9q24 0 24 17v352q0 16 -24 16v8h163q137 0 137 -112q0 -39 -26 -68.5t-68 -39.5l74 -104q19 -26 58 -72v-6h-64q-22 19 -59 77l-63 98h-69v-149q0 -17 25 -17v-9z" />
    <glyph glyph-name="copyright" unicode="&#xa9;" horiz-adv-x="800" 
d="M399 695q146 0 249.5 -103.5t103.5 -249.5q0 -147 -103.5 -250t-249.5 -103t-249.5 103t-103.5 249q0 147 103.5 250.5t249.5 103.5zM399 649q-123 0 -210.5 -90t-87.5 -217t87.5 -217t210.5 -90t210.5 90t87.5 217t-87.5 217t-210.5 90zM572 427h-36q-5 43 -37 67.5
t-83 24.5q-74 0 -113 -46.5t-39 -124.5q0 -81 39 -128q41 -50 118 -50q48 0 83 27q32 25 41 64h35l-10 -39q-9 -37 -56 -64.5t-98 -27.5q-99 0 -158.5 59t-59.5 158q0 97 59 153.5t165 56.5q53 0 95 -23q46 -26 55 -69v-38z" />
    <glyph glyph-name="trademark" unicode="&#x2122;" horiz-adv-x="990" 
d="M389 617h-11q-5 32 -35 32h-88v-302q0 -27 8 -36q5 -5 16 -7v-19h-110v19q24 4 24 43v302h-89q-29 0 -34 -32h-10v70h329v-70zM928 687v-19q-25 -4 -25 -43v-278q0 -39 25 -43v-19h-110v19q24 4 24 43v272l-149 -334h-24l-149 335l1 -273q0 -39 26 -43v-19h-94v19
q13 2 19.5 10.5t6.5 32.5v278q0 39 -26 43v19h97l143 -314l140 314h95z" />
    <glyph glyph-name="acute" unicode="&#xb4;" horiz-adv-x="250" 
d="M57 552l87 96q39 43 62 59q43 0 52 -25q-18 -21 -69 -62l-86 -68h-46z" />
    <glyph glyph-name="dieresis" unicode="&#xa8;" horiz-adv-x="250" 
d="M31 660q10 0 28 -19.5t18 -30.5t-18 -30.5t-28 -19.5t-28 19.5t-18 30.5t18 30.5t28 19.5zM218 660q10 0 28 -19.5t18 -30.5t-18 -30.5t-28 -19.5t-28 19.5t-18 30.5t18 30.5t28 19.5z" />
    <glyph glyph-name="AE" unicode="&#xc6;" horiz-adv-x="944" 
d="M475 628l-196 -296h200v296h-4zM479 279h-234l-147 -222q-7 -11 -7 -23q0 -7 4 -11q8 -6 28 -6h11v-17h-141v17q27 4 38 40l393 592q4 6 4 11q0 6 -6 7q-21 3 -31 3v17h490q1 -40 11 -154h-15q-27 106 -116 106h-140q-59 0 -59 -35v-226h130q40 0 56.5 12.5t21.5 47.5h14
v-170h-14q-5 36 -21.5 48.5t-56.5 12.5h-130v-249q0 -32 38 -32h149q66 0 99 27q29 25 42 84h16q-7 -81 -9 -159h-471v17h21q32 0 32 33v229z" />
    <glyph glyph-name="Oslash" unicode="&#xd8;" horiz-adv-x="750" 
d="M560 565l-340 -479q54 -53 154 -53q116 0 184.5 84.5t68.5 225.5q0 137 -67 222zM187 122l339 479q-58 52 -152 52q-115 0 -183.5 -85t-68.5 -225t65 -221zM621 735q8 -2 24.5 -7t24.5 -7l-74 -104q15 -15 22 -20q100 -103 100 -254q0 -150 -99.5 -254t-244.5 -104
q-111 0 -187 55l-75 -107q-8 2 -24.5 7t-24.5 7l87 123q-7 6 -20 19q-99 102 -99 254q0 150 99.5 254t243.5 104q108 0 184 -54z" />
    <glyph glyph-name="plusminus" unicode="&#xb1;" horiz-adv-x="600" 
d="M271 319v168h58v-168h215v-58h-215v-167h-58v167h-214v58h214zM57 0v57h487v-57h-487z" />
    <glyph glyph-name="yen" unicode="&#xa5;" 
d="M56 254h154v19l-27 56h-137v47h114l-128 265q-14 29 -38 29v17l151 8v-17q-22 0 -29 -9q-3 -3 -3 -8q0 -9 7 -20l145 -307l149 304q5 15 5 22q0 3 -2 9q-7 9 -29 9v17l125 -8v-17q-26 -1 -38 -25l-135 -269h113v-47h-136l-27 -54v-21h153v-47h-153v-154q0 -33 29 -33h20
v-17l-45 -2l-44 -1l-45 -2l-45 -1v17h20q30 0 30 33v160h-154v47z" />
    <glyph glyph-name="mu" unicode="&#xb5;" horiz-adv-x="528" 
d="M459 42q0 -21 34 -21v-17q-36 -3 -107 -7v88q-57 -96 -156 -97q-55 -1 -86 21v-187h-112v115q24 18 32 45q4 17 4 57v402q0 20 -23 20h-12v17q19 1 55.5 4t55.5 4v-327q0 -65 24 -95t78 -30q64 0 96.5 44t40.5 136v227q0 20 -26 20h-14v17q39 3 116 8v-444z" />
    <glyph glyph-name="mu" unicode="&#x3bc;" horiz-adv-x="528" 
d="M459 42q0 -21 34 -21v-17q-36 -3 -107 -7v88q-57 -96 -156 -97q-55 -1 -86 21v-187h-112v115q24 18 32 45q4 17 4 57v402q0 20 -23 20h-12v17q19 1 55.5 4t55.5 4v-327q0 -65 24 -95t78 -30q64 0 96.5 44t40.5 136v227q0 20 -26 20h-14v17q39 3 116 8v-444z" />
    <glyph glyph-name="ordfeminine" unicode="&#xaa;" horiz-adv-x="283" 
d="M191 504v25q-9 36 -43 36l-9 -1q-38 -4 -63.5 -27.5t-25.5 -53.5q0 -26 17.5 -42.5t47.5 -16.5q33 0 54.5 23.5t21.5 56.5zM194 445q-27 -51 -91 -51q-48 0 -77 25t-29 64q0 38 34.5 67t84.5 36l34 1q18 -1 41 -9v49q0 46 -68 46q-47 0 -78 -20q14 -2 14 -16q0 -8 -9 -8
l-8 1q-15 4 -15 28q20 42 101 42q112 0 112 -84v-183q0 -17 10 -17q12 0 12 20h9q0 -17 -15.5 -28t-36.5 -11q-20 0 -25 48z" />
    <glyph glyph-name="ordmasculine" unicode="&#xba;" horiz-adv-x="334" 
d="M326 547q0 -64 -46.5 -108.5t-114.5 -44.5q-67 0 -113.5 44.5t-46.5 108.5t46.5 108.5t113.5 44.5q68 0 114.5 -44.5t46.5 -108.5zM273 547q0 58 -28.5 92t-79.5 34q-50 0 -78 -34t-28 -92t28 -91.5t78 -33.5q51 0 79.5 34t28.5 91z" />
    <glyph glyph-name="ae" unicode="&#xe6;" horiz-adv-x="834" 
d="M343 171v43q-6 30 -28 45.5t-44 13.5l-13 -1q-63 -5 -103.5 -44.5t-40.5 -91.5q0 -43 28.5 -71t77.5 -28q53 0 88 39t35 95zM407 418q67 79 180 79q80 0 135.5 -52t63.5 -128l-357 -122q12 -63 43 -102q48 -60 124 -60q95 0 170 86q3 -8 12 -43q-72 -89 -198 -89
q-121 0 -188 98q-76 -98 -197 -98q-75 0 -119.5 41.5t-44.5 106.5q0 64 55 112.5t135 59.5q20 3 35 2l20 -1q29 -1 67 -14v81q0 37 -32 57t-80 20q-35 0 -75 -12q-35 -11 -49 -21q22 -5 22 -27q0 -13 -13 -13q-36 0 -36 47q13 31 55 51.5t100 20.5q128 0 172 -80zM425 238
l266 103q-18 110 -110 110q-74 0 -115 -53t-41 -147v-13z" />
    <glyph glyph-name="oslash" unicode="&#xf8;" horiz-adv-x="556" 
d="M457 556l21.5 -6t20.5 -6l-66 -100q8 -8 23 -21q73 -75 73 -181q0 -107 -73 -181t-178 -74q-75 0 -125 32l-64 -98q-6 2 -20.5 5.5t-21.5 5.5l72 111q-11 7 -19 18q-72 74 -72 181t72.5 181t177.5 74q71 0 120 -30zM401 395l-219 -333q33 -29 96 -29q78 0 123 56.5
t45 152.5q0 95 -45 152v1zM152 93l218 331q-37 27 -92 27q-78 0 -122.5 -56.5t-44.5 -152.5t41 -149z" />
    <glyph glyph-name="questiondown" unicode="&#xbf;" horiz-adv-x="444" 
d="M216 -189q-87 0 -139 51q-49 48 -49 118q0 48 22 85q19 32 65 69q50 40 62 57q22 28 24 75q0 4 1 13t1 13v24q4 1 10.5 2t9.5 1q-1 0 20 3v-93q0 -36 -22 -65q-13 -17 -51 -49q-66 -55 -66 -130q0 -54 35 -91t90 -37q49 0 85.5 28t48.5 73l-12 -1q-5 -1 -11 1
q-9 1 -16 13q0 12 13.5 20t26.5 8q8 0 21 -4q23 -7 23 -39q-13 -61 -61 -101q-54 -44 -131 -44zM217 407q-13 0 -35 22.5t-22 35.5t22 35.5t35 22.5q12 0 34 -22.5t22 -35.5t-22 -35.5t-34 -22.5z" />
    <glyph glyph-name="exclamdown" unicode="&#xa1;" horiz-adv-x="250" 
d="M129 405q-12 0 -34 22.5t-22 35.5t22 35.5t34 22.5t34 -22.5t22 -35.5t-22 -35.5t-34 -22.5zM78 -156q7 49 13 97q7 55 8 103l5 273l21 1q10 0 22 2v-270l22 -200q0 -14 -21.5 -27t-40.5 -13q-29 0 -29 34z" />
    <glyph glyph-name="logicalnot" unicode="&#xac;" horiz-adv-x="600" 
d="M488 108v204h-431v56h487v-260h-56z" />
    <glyph glyph-name="florin" unicode="&#x192;" 
d="M395 712q75 1 91 -43q-2 -32 -24 -44q-11 -6 -20 -6t-13 5l-1 6q0 2 3.5 11.5t10.5 13.5q-10 14 -42 14q-35 0 -53.5 -35.5t-36.5 -139.5l-11 -64h119v-47h-124l-53 -370q-30 -206 -159 -206q-32 0 -57.5 14t-33.5 36q1 32 26 45q10 5 16 5q8 0 15 -9l1 -6
q0 -3 -1.5 -9.5t-10.5 -13.5q21 -19 46 -19q34 0 54.5 40.5t33.5 139.5l46 353h-106v47h112l9 48q13 127 52 182q37 51 111 52z" />
    <glyph glyph-name="guillemotleft" unicode="&#xab;" horiz-adv-x="472" 
d="M297 246q50 -50 112 -137q-7 -22 -26 -24q-51 54 -162 158v6q97 85 168 158q19 -2 26 -24q-71 -91 -118 -137zM136 246q50 -50 112 -137q-7 -22 -26 -24q-51 54 -162 158v6q97 85 168 158q19 -2 26 -24q-71 -91 -118 -137z" />
    <glyph glyph-name="guillemotright" unicode="&#xbb;" horiz-adv-x="472" 
d="M337 246q-61 58 -119 137q6 22 25 24q58 -59 170 -158v-6q-94 -85 -165 -158q-19 2 -25 24q57 80 114 137zM176 246q-61 58 -119 137q6 22 25 24q58 -59 170 -158v-6q-94 -85 -165 -158q-19 2 -25 24q57 80 114 137z" />
    <glyph glyph-name="ellipsis" unicode="&#x2026;" horiz-adv-x="1000" 
d="M500 109q12 0 33.5 -22t21.5 -35t-21.5 -35t-33.5 -22t-33.5 22t-21.5 35t21.5 35t33.5 22zM834 109q12 0 33.5 -22t21.5 -35t-21.5 -35t-33.5 -22t-33.5 22t-21.5 35t21.5 35t33.5 22zM166 109q12 0 33.5 -22t21.5 -35t-21.5 -35t-33.5 -22t-33.5 22t-21.5 35t21.5 35
t33.5 22z" />
    <glyph glyph-name="nonbreakingspace" unicode="&#xa0;" 
 />
    <glyph glyph-name="Agrave" unicode="&#xc0;" horiz-adv-x="667" 
d="M430 302l-112 246l-110 -246h222zM681 17v-17l-169 -8v17q32 0 38 6q3 3 3 9q0 7 -5 22l-94 203h-269l-85 -191q-6 -13 -6 -25q0 -24 54 -24v-17l-163 8v17q46 0 61 49l277 631h18l286 -639q10 -23 20.5 -32t33.5 -9zM403 731h-47l-87 68q-51 41 -69 62q9 25 52 25
q24 -15 64 -59z" />
    <glyph glyph-name="Atilde" unicode="&#xc3;" horiz-adv-x="667" 
d="M430 302l-112 246l-110 -246h222zM681 17v-17l-169 -8v17q32 0 38 6q3 3 3 9q0 7 -5 22l-94 203h-269l-85 -191q-6 -13 -6 -25q0 -24 54 -24v-17l-163 8v17q46 0 61 49l277 631h18l286 -639q10 -23 20.5 -32t33.5 -9zM498 846q-18 -98 -95 -98q-34 0 -78.5 22.5
t-64.5 22.5q-40 0 -51 -46h-33q18 98 95 98q31 0 76 -22.5t66 -22.5q41 0 52 46h33z" />
    <glyph glyph-name="Otilde" unicode="&#xd5;" horiz-adv-x="750" 
d="M627 343q0 141 -68.5 225.5t-184.5 84.5q-115 0 -183.5 -85t-68.5 -225t68.5 -225t183.5 -85q116 0 184.5 84.5t68.5 225.5zM718 343q0 -150 -99.5 -254t-244.5 -104q-144 0 -243.5 104t-99.5 254t99.5 254t243.5 104q145 0 244.5 -104t99.5 -254zM537 846
q-18 -98 -95 -98q-34 0 -78.5 22.5t-64.5 22.5q-40 0 -51 -46h-33q18 98 95 98q31 0 76 -22.5t66 -22.5q41 0 52 46h33z" />
    <glyph glyph-name="OE" unicode="&#x152;" horiz-adv-x="1000" 
d="M357 647q-105 0 -174 -80t-69 -200v-24q0 -139 65.5 -221t178.5 -82q88 0 148 54.5t60 140.5v215q0 87 -60.5 142t-148.5 55zM573 0l1 72q-60 -80 -216 -80q-145 0 -240.5 101t-95.5 253q0 150 97 249.5t245 99.5q62 0 123 -24q55 -22 82 -52v68h381q2 -70 9 -154h-15
q-27 106 -116 106h-121q-58 0 -58 -35v-226h116q40 0 56.5 12.5t21.5 47.5h14v-169h-14q-5 35 -21.5 47.5t-56.5 12.5h-116v-249q0 -32 38 -32h133q66 0 99 28q29 25 42 84h16q-7 -82 -9 -160h-395z" />
    <glyph glyph-name="oe" unicode="&#x153;" horiz-adv-x="945" 
d="M449 242q0 96 -45 152.5t-123 56.5t-122 -56t-44 -153t44 -153t122 -56t123 56.5t45 152.5zM488 109q-69 -122 -209 -122q-103 0 -175 74t-72 181t72 181t176 74q139 0 208 -119q64 119 207 119q82 0 139.5 -52t65.5 -128l-360 -122q12 -63 43 -102q48 -60 126 -60
q96 0 171 86q3 -7 6 -21.5t6 -21.5q-68 -89 -185 -89q-151 0 -219 122zM536 238l269 103q-18 110 -111 110q-75 0 -116.5 -53t-41.5 -147v-13z" />
    <glyph glyph-name="endash" unicode="&#x2013;" 
d="M0 268h500v-50h-500v50z" />
    <glyph glyph-name="emdash" unicode="&#x2014;" horiz-adv-x="1000" 
d="M0 268h1000v-50h-1000v50z" />
    <glyph glyph-name="quotedblleft" unicode="&#x201c;" horiz-adv-x="361" 
d="M248 468q-17 0 -38 24q-24 26 -24 56q1 66 88 161q6 -4 15 -11l14 -11q-38 -48 -44 -69q-2 -10 -2 -13q0 -14 9 -23q-4 -5 -4 -13v-13q37 0 37 -30q0 -14 -19 -36t-32 -22zM97 468q-17 0 -38 24q-24 26 -24 56q1 66 88 161q6 -4 15 -11l14 -11q-38 -48 -44 -69
q-2 -10 -2 -13q0 -14 9 -23q-4 -5 -4 -13v-13q37 0 37 -30q0 -14 -19 -36t-32 -22z" />
    <glyph glyph-name="quotedblright" unicode="&#x201d;" horiz-adv-x="361" 
d="M263 709q18 0 40.5 -24t22.5 -55q-1 -69 -88 -162q-22 16 -29 23q50 50 54 85l1 8q0 14 -15 39q-37 0 -37 31q0 12 19.5 33.5t31.5 21.5zM112 709q18 0 40.5 -24t22.5 -55q-1 -69 -88 -162q-22 16 -29 23q50 50 54 85l1 8q0 14 -15 39q-37 0 -37 31q0 12 19.5 33.5
t31.5 21.5z" />
    <glyph glyph-name="quoteleft" unicode="&#x2018;" horiz-adv-x="222" 
d="M107 468q-17 0 -38 24q-24 26 -24 56q1 66 88 161q6 -4 15 -11l14 -11q-38 -48 -44 -69q-2 -10 -2 -13q0 -14 9 -23q-4 -5 -4 -13v-13q37 0 37 -30q0 -14 -19 -36t-32 -22z" />
    <glyph glyph-name="quoteright" unicode="&#x2019;" horiz-adv-x="222" 
d="M114 709q18 0 40.5 -24t22.5 -55q-1 -69 -88 -162q-22 16 -29 23q50 50 54 85l1 8q0 14 -15 39q-37 0 -37 31q0 12 19.5 33.5t31.5 21.5z" />
    <glyph glyph-name="divide" unicode="&#xf7;" horiz-adv-x="600" 
d="M298 497q12 0 33 -21.5t21 -34.5t-21 -34.5t-33 -21.5q-11 0 -32.5 21.5t-21.5 34.5t21.5 34.5t32.5 21.5zM57 215v56h487v-56h-487zM298 101q12 0 33 -21.5t21 -34.5t-21 -34.5t-33 -21.5q-11 0 -32.5 21.5t-21.5 34.5t21.5 34.5t32.5 21.5z" />
    <glyph glyph-name="ydieresis" unicode="&#xff;" horiz-adv-x="472" 
d="M363 475v17q62 -4 123 -6v-17q-19 0 -26.5 -5t-12.5 -25l-237 -522q-24 -52 -38 -70q-23 -29 -56 -29q-20 0 -33.5 12.5t-13.5 30.5l-1 11q0 21 15 21q20 0 20 -17q0 -22 -24 -29q1 -2 4 -4t10 -2q35 0 57 61l65 139l-193 406q-7 22 -35 22l-1 17q64 0 144 5v-17
q-28 0 -33 -5l-1 -5q0 -11 8 -27l151 -310l139 313q4 9 4 19q0 6 -5 11q-12 5 -30 5zM147 660q10 0 28 -19.5t18 -30.5t-18 -30.5t-28 -19.5t-28 19.5t-18 30.5t18 30.5t28 19.5zM334 660q10 0 28 -19.5t18 -30.5t-18 -30.5t-28 -19.5t-28 19.5t-18 30.5t18 30.5t28 19.5z
" />
    <glyph glyph-name="Ydieresis" unicode="&#x178;" horiz-adv-x="556" 
d="M427 678v17l149 -8v-17q-36 0 -53 -32l-198 -380l-57 -205q0 -33 33 -33h22v-17q-94 -5 -189 -6v17h21q31 0 31 33l56 229l-205 368q-14 26 -47 26l-1 16l174 9v-17q-42 0 -42 -17q0 -7 6 -18l176 -310l161 305q6 11 6 22l-3 9q-5 5 -40 9zM195 839q10 0 28 -19.5
t18 -30.5t-18 -30.5t-28 -19.5t-28 19.5t-18 30.5t18 30.5t28 19.5zM382 839q10 0 28 -19.5t18 -30.5t-18 -30.5t-28 -19.5t-28 19.5t-18 30.5t18 30.5t28 19.5z" />
    <glyph glyph-name="currency" unicode="&#xa4;" 
d="M250 531q-75 0 -128.5 -53.5t-53.5 -128.5t53.5 -128.5t128.5 -53.5t128.5 53.5t53.5 128.5t-53.5 128.5t-128.5 53.5zM487 349q0 -85 -52 -146l53 -54q-18 -20 -38 -38l-55 53q-61 -52 -145 -52q-87 0 -146 52l-55 -53l-38 38l54 54q-52 61 -52 146q0 87 52 146l-54 54
l38 38l55 -53q61 52 146 52q84 0 146 -52l54 53q20 -18 38 -38l-53 -54q52 -65 52 -146z" />
    <glyph glyph-name="guilsinglleft" unicode="&#x2039;" horiz-adv-x="278" 
d="M118 246q50 -50 112 -137q-7 -22 -26 -24q-51 54 -162 158v6q97 85 168 158q19 -2 26 -24q-71 -91 -118 -137z" />
    <glyph glyph-name="guilsinglright" unicode="&#x203a;" horiz-adv-x="278" 
d="M158 246q-61 58 -119 137q6 22 25 24q58 -59 170 -158v-6q-94 -85 -165 -158q-19 2 -25 24q57 80 114 137z" />
    <glyph glyph-name="daggerdbl" unicode="&#x2021;" 
d="M290 669q-14 -61 -29 -186q28 1 79 14.5t77 14.5q22 -10 22 -42q0 -34 -22 -41q-25 1 -75.5 14.5t-80.5 14.5q6 -127 30 -183q-25 -63 -30 -188q28 1 79 14.5t77 14.5q22 -10 22 -42q0 -34 -22 -41q-25 1 -75.5 14.5t-80.5 14.5q4 -60 17 -112q10 -41 16 -82
q-12 -24 -45 -24t-44 24q2 34 15 97q15 67 18 97q-32 -1 -82.5 -14.5t-75.5 -14.5q-21 7 -21 41q0 32 22 42q25 -1 76 -14.5t81 -14.5q-7 124 -29 188q21 56 29 183q-32 -1 -82.5 -14.5t-75.5 -14.5q-21 7 -21 41q0 32 22 42q25 -1 76 -14.5t81 -14.5q-2 29 -16 93
q-12 60 -13 93q6 24 40 24t41 -24z" />
    <glyph glyph-name="periodcentered" unicode="&#xb7;" horiz-adv-x="250" 
d="M118 300q12 0 33.5 -22t21.5 -35t-21.5 -35t-33.5 -22t-33.5 22t-21.5 35t21.5 35t33.5 22z" />
    <glyph glyph-name="periodcentered" unicode="&#x2219;" horiz-adv-x="250" 
d="M118 300q12 0 33.5 -22t21.5 -35t-21.5 -35t-33.5 -22t-33.5 22t-21.5 35t21.5 35t33.5 22z" />
    <glyph glyph-name="quotesinglbase" unicode="&#x201a;" horiz-adv-x="222" 
d="M114 89q18 0 40.5 -24t22.5 -55q-1 -69 -88 -162q-22 16 -29 23q50 50 54 85l1 8q0 14 -15 39q-37 0 -37 31q0 12 19.5 33.5t31.5 21.5z" />
    <glyph glyph-name="quotedblbase" unicode="&#x201e;" horiz-adv-x="361" 
d="M262 89q18 0 40.5 -24t22.5 -55q-1 -69 -88 -162q-22 16 -29 23q50 50 54 85l1 8q0 14 -15 39q-37 0 -37 31q0 12 19.5 33.5t31.5 21.5zM114 89q18 0 40.5 -24t22.5 -55q-1 -69 -88 -162q-22 16 -29 23q50 50 54 85l1 8q0 14 -15 39q-37 0 -37 31q0 12 19.5 33.5
t31.5 21.5z" />
    <glyph glyph-name="perthousand" unicode="&#x2030;" horiz-adv-x="972" 
d="M366 678q8 -6 44 -28q13 -8 24 -8q30 0 59 45h52l-389 -700h-53l363 648q-15 -13 -35 -13l-8 1q-26 3 -48 31zM162 681q60 0 100.5 -52t40.5 -128t-41.5 -127.5t-102.5 -51.5q-58 0 -98.5 52.5t-40.5 127.5t41 127t101 52zM161 642q-41 0 -65 -39t-24 -103
q0 -63 24.5 -101.5t66.5 -38.5q40 0 64 39t24 102t-24.5 102t-65.5 39zM491 358q60 0 100.5 -51.5t40.5 -127.5t-41 -127.5t-102 -51.5q-60 0 -100.5 52.5t-40.5 127.5t41.5 126.5t101.5 51.5zM492 318q-42 0 -66.5 -39t-24.5 -103q0 -63 25 -101t67 -38q39 0 63 39t24 101
q0 63 -24 102t-64 39zM810 358q60 0 101 -51.5t41 -127.5t-41.5 -127.5t-102.5 -51.5q-59 0 -99.5 52.5t-40.5 127.5t41.5 126.5t100.5 51.5zM812 318q-42 0 -66.5 -39t-24.5 -103q0 -63 25 -101t67 -38q40 0 64 39t24 101q0 63 -24 102t-65 39z" />
    <glyph glyph-name="Acircumflex" unicode="&#xc2;" horiz-adv-x="667" 
d="M430 302l-112 246l-110 -246h222zM681 17v-17l-169 -8v17q32 0 38 6q3 3 3 9q0 7 -5 22l-94 203h-269l-85 -191q-6 -13 -6 -25q0 -24 54 -24v-17l-163 8v17q46 0 61 49l277 631h18l286 -639q10 -23 20.5 -32t33.5 -9zM183 731l119 154h62l120 -154h-49l-102 102
l-101 -102h-49z" />
    <glyph glyph-name="Ecircumflex" unicode="&#xca;" horiz-adv-x="584" 
d="M52 0v17h17q29 0 29 33v587q0 33 -29 33h-17v17h468q2 -70 9 -154h-15q-27 106 -116 106h-159q-59 0 -59 -35v-226h142q41 0 57 12.5t21 47.5h14v-169h-14q-5 35 -21 47.5t-57 12.5h-142v-249q0 -32 38 -32h172q67 0 99 28q29 25 42 84h16q-4 -42 -9 -160h-486zM155 731
l119 154h62l120 -154h-49l-102 102l-101 -102h-49z" />
    <glyph glyph-name="Aacute" unicode="&#xc1;" horiz-adv-x="667" 
d="M430 302l-112 246l-110 -246h222zM681 17v-17l-169 -8v17q32 0 38 6q3 3 3 9q0 7 -5 22l-94 203h-269l-85 -191q-6 -13 -6 -25q0 -24 54 -24v-17l-163 8v17q46 0 61 49l277 631h18l286 -639q10 -23 20.5 -32t33.5 -9zM266 731l87 96q39 43 62 59q43 0 52 -25
q-18 -21 -69 -62l-86 -68h-46z" />
    <glyph glyph-name="Edieresis" unicode="&#xcb;" horiz-adv-x="584" 
d="M52 0v17h17q29 0 29 33v587q0 33 -29 33h-17v17h468q2 -70 9 -154h-15q-27 106 -116 106h-159q-59 0 -59 -35v-226h142q41 0 57 12.5t21 47.5h14v-169h-14q-5 35 -21 47.5t-57 12.5h-142v-249q0 -32 38 -32h172q67 0 99 28q29 25 42 84h16q-4 -42 -9 -160h-486zM211 839
q10 0 28 -19.5t18 -30.5t-18 -30.5t-28 -19.5t-28 19.5t-18 30.5t18 30.5t28 19.5zM398 839q10 0 28 -19.5t18 -30.5t-18 -30.5t-28 -19.5t-28 19.5t-18 30.5t18 30.5t28 19.5z" />
    <glyph glyph-name="Egrave" unicode="&#xc8;" horiz-adv-x="584" 
d="M52 0v17h17q29 0 29 33v587q0 33 -29 33h-17v17h468q2 -70 9 -154h-15q-27 106 -116 106h-159q-59 0 -59 -35v-226h142q41 0 57 12.5t21 47.5h14v-169h-14q-5 35 -21 47.5t-57 12.5h-142v-249q0 -32 38 -32h172q67 0 99 28q29 25 42 84h16q-4 -42 -9 -160h-486zM375 731
h-47l-87 68q-51 41 -69 62q9 25 52 25q24 -15 64 -59z" />
    <glyph glyph-name="Iacute" unicode="&#xcd;" horiz-adv-x="278" 
d="M180 53q0 -25 13 -31q5 -2 35 -2v-23h-178v17q30 0 35 2q13 6 13 31v592q0 25 -13 31q-5 2 -35 2v17h178v-11q-30 0 -35 -2q-13 -6 -13 -31v-592zM71 731l87 96q39 43 62 59q43 0 52 -25q-18 -21 -69 -62l-86 -68h-46z" />
    <glyph glyph-name="Icircumflex" unicode="&#xce;" horiz-adv-x="278" 
d="M180 53q0 -25 13 -31q5 -2 35 -2v-23h-178v17q30 0 35 2q13 6 13 31v592q0 25 -13 31q-5 2 -35 2v17h178v-11q-30 0 -35 -2q-13 -6 -13 -31v-592zM-12 731l119 154h62l120 -154h-49l-102 102l-101 -102h-49z" />
    <glyph glyph-name="Idieresis" unicode="&#xcf;" horiz-adv-x="278" 
d="M180 53q0 -25 13 -31q5 -2 35 -2v-23h-178v17q30 0 35 2q13 6 13 31v592q0 25 -13 31q-5 2 -35 2v17h178v-11q-30 0 -35 -2q-13 -6 -13 -31v-592zM44 839q10 0 28 -19.5t18 -30.5t-18 -30.5t-28 -19.5t-28 19.5t-18 30.5t18 30.5t28 19.5zM231 839q10 0 28 -19.5
t18 -30.5t-18 -30.5t-28 -19.5t-28 19.5t-18 30.5t18 30.5t28 19.5z" />
    <glyph glyph-name="Igrave" unicode="&#xcc;" horiz-adv-x="278" 
d="M180 53q0 -25 13 -31q5 -2 35 -2v-23h-178v17q30 0 35 2q13 6 13 31v592q0 25 -13 31q-5 2 -35 2v17h178v-11q-30 0 -35 -2q-13 -6 -13 -31v-592zM208 731h-47l-87 68q-51 41 -69 62q9 25 52 25q24 -15 64 -59z" />
    <glyph glyph-name="Oacute" unicode="&#xd3;" horiz-adv-x="750" 
d="M627 343q0 141 -68.5 225.5t-184.5 84.5q-115 0 -183.5 -85t-68.5 -225t68.5 -225t183.5 -85q116 0 184.5 84.5t68.5 225.5zM718 343q0 -150 -99.5 -254t-244.5 -104q-144 0 -243.5 104t-99.5 254t99.5 254t243.5 104q145 0 244.5 -104t99.5 -254zM305 731l87 96
q39 43 62 59q43 0 52 -25q-18 -21 -69 -62l-86 -68h-46z" />
    <glyph glyph-name="Ocircumflex" unicode="&#xd4;" horiz-adv-x="750" 
d="M627 343q0 141 -68.5 225.5t-184.5 84.5q-115 0 -183.5 -85t-68.5 -225t68.5 -225t183.5 -85q116 0 184.5 84.5t68.5 225.5zM718 343q0 -150 -99.5 -254t-244.5 -104q-144 0 -243.5 104t-99.5 254t99.5 254t243.5 104q145 0 244.5 -104t99.5 -254zM222 731l119 154h62
l120 -154h-49l-102 102l-101 -102h-49z" />
    <glyph glyph-name="Ograve" unicode="&#xd2;" horiz-adv-x="750" 
d="M627 343q0 141 -68.5 225.5t-184.5 84.5q-115 0 -183.5 -85t-68.5 -225t68.5 -225t183.5 -85q116 0 184.5 84.5t68.5 225.5zM718 343q0 -150 -99.5 -254t-244.5 -104q-144 0 -243.5 104t-99.5 254t99.5 254t243.5 104q145 0 244.5 -104t99.5 -254zM442 731h-47l-87 68
q-51 41 -69 62q9 25 52 25q24 -15 64 -59z" />
    <glyph glyph-name="Uacute" unicode="&#xda;" horiz-adv-x="667" 
d="M529 237v393q0 42 -37 42h-17v17q75 2 150 6v-17h-15q-33 0 -33 -42v-410q0 -115 -65 -178t-182 -63q-118 0 -180.5 57t-62.5 167v430q0 33 -29 33h-19l1 17q89 2 177 6v-17h-19q-29 0 -29 -33v-433q0 -86 43.5 -132.5t123.5 -46.5q94 0 143.5 52.5t49.5 151.5zM271 731
l87 96q39 43 62 59q43 0 52 -25q-18 -21 -69 -62l-86 -68h-46z" />
    <glyph glyph-name="Ucircumflex" unicode="&#xdb;" horiz-adv-x="667" 
d="M529 237v393q0 42 -37 42h-17v17q75 2 150 6v-17h-15q-33 0 -33 -42v-410q0 -115 -65 -178t-182 -63q-118 0 -180.5 57t-62.5 167v430q0 33 -29 33h-19l1 17q89 2 177 6v-17h-19q-29 0 -29 -33v-433q0 -86 43.5 -132.5t123.5 -46.5q94 0 143.5 52.5t49.5 151.5zM188 731
l119 154h62l120 -154h-49l-102 102l-101 -102h-49z" />
    <glyph glyph-name="Ugrave" unicode="&#xd9;" horiz-adv-x="667" 
d="M529 237v393q0 42 -37 42h-17v17q75 2 150 6v-17h-15q-33 0 -33 -42v-410q0 -115 -65 -178t-182 -63q-118 0 -180.5 57t-62.5 167v430q0 33 -29 33h-19l1 17q89 2 177 6v-17h-19q-29 0 -29 -33v-433q0 -86 43.5 -132.5t123.5 -46.5q94 0 143.5 52.5t49.5 151.5zM408 731
h-47l-87 68q-51 41 -69 62q9 25 52 25q24 -15 64 -59z" />
    <glyph glyph-name="circumflex" unicode="&#x2c6;" horiz-adv-x="250" 
d="M-26 552l119 154h62l120 -154h-49l-102 102l-101 -102h-49z" />
    <glyph glyph-name="tilde" unicode="&#x2dc;" horiz-adv-x="250" 
d="M287 667q-18 -98 -95 -98q-34 0 -78.5 22.5t-64.5 22.5q-40 0 -51 -46h-33q18 98 95 98q31 0 76 -22.5t66 -22.5q41 0 52 46h33z" />
    <glyph glyph-name="macron" unicode="&#xaf;" horiz-adv-x="250" 
d="M-27 638h302v-52h-302v52z" />
    <glyph glyph-name="macron" unicode="&#x2c9;" horiz-adv-x="250" 
d="M-27 638h302v-52h-302v52z" />
    <glyph glyph-name="cedilla" unicode="&#xb8;" horiz-adv-x="250" 
d="M22 -190q5 10 14 31q36 -13 65 -13q60 0 60 42q0 41 -51 38l-19 -1q-7 -2 -18 -3l-11 9l56 96h36l-44 -70q6 3 18 5l18 1q35 2 58 -19t23 -53q0 -37 -32.5 -59.5t-84.5 -22.5q-40 0 -88 19z" />
    <glyph glyph-name="Scaron" unicode="&#x160;" horiz-adv-x="528" 
d="M496 201q0 -100 -63.5 -158t-170.5 -58q-53 0 -110 29q-50 25 -77 57q-8 0 -23 -24h-14v130q14 6 39 19q16 -66 68 -113q57 -50 131 -50q62 0 103.5 37t41.5 92q0 63 -42 98q-38 31 -132 56q-109 29 -155 73t-46 120q0 83 59 137.5t150 54.5q87 0 178 -71q7 0 15 20l1 3
h16v-116l-34 -22q-18 55 -60 93q-49 45 -111 45q-64 0 -102 -32t-38 -89q0 -95 165 -138q113 -29 162 -75t49 -118zM115 884h49l101 -102l102 102h49l-120 -154h-62z" />
    <glyph glyph-name="scaron" unicode="&#x161;" horiz-adv-x="417" 
d="M385 143q0 -70 -50 -113t-132 -43q-86 0 -153 58q-12 0 -14 -16h-14v86q6 4 18 10l18 9q43 -101 148 -101q46 0 78.5 24.5t32.5 60.5q0 41 -31 63t-99 36q-157 32 -157 141q0 60 48.5 99.5t116.5 39.5q43 0 89 -17q36 -14 55 -30q9 0 11 13h16v-73q-16 -12 -33 -23
q-39 84 -136 84q-48 0 -73.5 -20.5t-25.5 -54.5q0 -32 26 -52t93 -35q94 -21 131 -55.5t37 -90.5zM51 705h49l101 -102l102 102h49l-120 -154h-62z" />
    <glyph glyph-name="brokenbar" unicode="&#xa6;" horiz-adv-x="222" 
d="M82 0v275h57v-275h-57zM82 410v277h57v-277h-57z" />
    <glyph glyph-name="Eth" unicode="&#xd0;" horiz-adv-x="667" 
d="M179 389h183v-53h-183v-256q17 -32 95 -32q263 0 263 294q0 297 -256 297q-41 0 -57 -4q-32 -6 -45 -30v-216zM19 389h78v251q0 32 -28 32h-19v15h248q141 0 236 -97t95 -247q0 -149 -96 -246t-241 -97h-242v17h19q28 0 28 33v286h-78v53z" />
    <glyph glyph-name="eth" unicode="&#xf0;" horiz-adv-x="556" 
d="M525 259q0 -120 -69 -196.5t-180 -76.5q-105 0 -176.5 71.5t-71.5 176.5t71.5 179t174.5 74q62 0 105 -24q-14 55 -71 114q-11 12 -35 31l-128 -52l-25 37l108 44q-30 18 -99 42l21 32q76 -18 134 -51l125 51l27 -36l-107 -44q60 -46 91 -82q105 -124 105 -290zM278 444
q-75 0 -121 -56t-46 -146q0 -94 45 -152t120 -58t121 58.5t46 151.5q0 90 -45 146t-120 56z" />
    <glyph glyph-name="Yacute" unicode="&#xdd;" horiz-adv-x="556" 
d="M427 678v17l149 -8v-17q-36 0 -53 -32l-198 -380l-57 -205q0 -33 33 -33h22v-17q-94 -5 -189 -6v17h21q31 0 31 33l56 229l-205 368q-14 26 -47 26l-1 16l174 9v-17q-42 0 -42 -17q0 -7 6 -18l176 -310l161 305q6 11 6 22l-3 9q-5 5 -40 9zM222 731l87 96q39 43 62 59
q43 0 52 -25q-18 -21 -69 -62l-86 -68h-46z" />
    <glyph glyph-name="yacute" unicode="&#xfd;" horiz-adv-x="472" 
d="M363 475v17q62 -4 123 -6v-17q-19 0 -26.5 -5t-12.5 -25l-237 -522q-24 -52 -38 -70q-23 -29 -56 -29q-20 0 -33.5 12.5t-13.5 30.5l-1 11q0 21 15 21q20 0 20 -17q0 -22 -24 -29q1 -2 4 -4t10 -2q35 0 57 61l65 139l-193 406q-7 22 -35 22l-1 17q64 0 144 5v-17
q-28 0 -33 -5l-1 -5q0 -11 8 -27l151 -310l139 313q4 9 4 19q0 6 -5 11q-12 5 -30 5zM174 552l87 96q39 43 62 59q43 0 52 -25q-18 -21 -69 -62l-86 -68h-46z" />
    <glyph glyph-name="Thorn" unicode="&#xde;" horiz-adv-x="528" 
d="M177 160v-107q0 -33 29 -33h20v-17l-45 -2l-45 -1l-44 -2l-44 -1v17h19q28 0 28 33v592q0 33 -28 33h-19v17l44 1l44 2l45 1l45 2v-17h-20q-29 0 -29 -33v-72h47l48 1q112 2 174.5 -52.5t62.5 -153.5q0 -98 -61.5 -153t-169.5 -55h-101zM178 208h42l42 1q80 2 117 39.5
t37 119.5q0 73 -38.5 115t-106.5 42q-76 0 -93 -37v-280z" />
    <glyph glyph-name="thorn" unicode="&#xfe;" horiz-adv-x="584" 
d="M142 81v-215q0 -22 29 -22h17v-17q-28 -2 -84 -5q-26 -2 -79 -5v17h15q26 0 26 22v800q0 20 -19 20q-19 7 -19 17q38 3 114 13v-320q53 111 166 111q103 0 171 -74t68 -184q0 -105 -69 -178.5t-168 -73.5q-115 0 -168 94zM143 224q0 -86 45 -138.5t118 -52.5
q72 0 116.5 56.5t44.5 146.5q0 98 -43.5 156.5t-117.5 58.5q-70 0 -116.5 -60t-46.5 -155v-12z" />
    <glyph glyph-name="minus" unicode="&#x2212;" horiz-adv-x="600" 
d="M57 215v56h487v-56h-487z" />
    <glyph glyph-name="multiply" unicode="&#xd7;" horiz-adv-x="600" 
d="M258 243l-203 203l41 41l203 -203l203 203l41 -41l-203 -203l203 -203l-41 -41l-203 203l-203 -203l-41 41z" />
    <glyph glyph-name="onesuperior" unicode="&#xb9;" horiz-adv-x="300" 
d="M194 306q0 -13 24 -13h15v-10l-32 -2l-32 -1l-32 -2l-32 -1v10h15q23 0 23 13v333q0 13 -32 13l-28.5 -14.5l-29.5 -15.5q0 2 -1 5.5t-2 5.5l-3 12q77 23 139 66h8v-399z" />
    <glyph glyph-name="twosuperior" unicode="&#xb2;" horiz-adv-x="300" 
d="M14 280q19 44 67 94q21 22 87 82q72 65 72 125q0 40 -27 66t-68 26t-68 -24.5t-27 -60.5q11 -44 60 -46q11 -5 11 -17l-1 -8q-5 -20 -25 -25q-33 4 -55 27.5t-22 57.5q0 55 37.5 89.5t96.5 34.5q60 0 99 -34.5t39 -87.5q0 -75 -90 -141q-96 -71 -126 -116h164q39 0 43 38
h9q-2 -12 -4 -40l-2 -40h-270z" />
    <glyph glyph-name="threesuperior" unicode="&#xb3;" horiz-adv-x="300" 
d="M72 605q-4 -6 -12 -7l-7 -1q-5 0 -13 2q-18 0 -18 24q7 31 41 54.5t82 23.5q58 0 95 -30.5t37 -77.5q0 -67 -83 -93q43 -8 69 -36t26 -67q0 -56 -44 -91t-113 -35q-50 0 -82.5 24t-40.5 64q8 31 40 31q4 0 12 -2q6 -6 6 -12t-4 -10q-6 -7 -14 -7q-7 0 -11 3
q4 -26 30.5 -44.5t63.5 -18.5q104 0 104 94q0 43 -24 68t-69 22l-31 -2q-9 4 -9 15q0 9 8 14l13 -1h13q38 0 63.5 22t25.5 60q0 37 -23 59t-62 22q-73 0 -95 -54q6 2 10 2q16 0 16 -15z" />
    <glyph glyph-name="onehalf" unicode="&#xbd;" horiz-adv-x="750" 
d="M195 306q0 -13 24 -13h15l1 -10q-64 -4 -129 -6v10h15q23 0 23 13v333q0 13 -32 13l-28.5 -14.5l-29.5 -15.5q0 2 -1 5.5t-2 5.5l-3 12q77 23 139 66h8v-399zM121 -14l447 715h55l-447 -715h-55zM446 0q19 44 67 94q21 22 87 82q72 65 72 125q0 40 -27 66t-68 26
t-68 -24.5t-27 -60.5q11 -44 60 -46q11 -5 11 -17l-1 -8q-5 -20 -25 -25q-33 4 -55 27.5t-22 57.5q0 55 37.5 89.5t96.5 34.5q60 0 99 -34.5t39 -87.5q0 -75 -90 -141q-96 -71 -126 -116h164q39 0 43 38h9q-2 -12 -4 -40l-2 -40h-270z" />
    <glyph glyph-name="onequarter" unicode="&#xbc;" horiz-adv-x="750" 
d="M197 306q0 -13 24 -13h15v-10l-32 -2l-32 -1l-32 -2l-32 -1v10h15q23 0 23 13v333q0 13 -32 13l-28.5 -14.5l-29.5 -15.5q0 2 -1 5.5t-2 5.5l-3 12q77 23 139 66h8v-399zM154 -14l447 715h55l-447 -715h-55zM636 424h9l11 1v-283h71l-1 -17l-2 -15h-68v-86q0 -12 16 -12
h10v-10l-26 -2l-26 -1l-29 -2l-29 -1v10q32 0 32 12v92h-178v13zM604 338l-135 -196h135v196z" />
    <glyph glyph-name="threequarters" unicode="&#xbe;" horiz-adv-x="750" 
d="M72 605q-4 -6 -12 -7l-7 -1q-5 0 -13 2q-18 0 -18 24q7 31 41 54.5t82 23.5q58 0 95 -30.5t37 -77.5q0 -67 -83 -93q43 -8 69 -36t26 -67q0 -56 -44 -91t-113 -35q-50 0 -82.5 24t-40.5 64q8 31 40 31q4 0 12 -2q6 -6 6 -12t-4 -10q-6 -7 -14 -7q-7 0 -11 3
q4 -26 30.5 -44.5t63.5 -18.5q104 0 104 94q0 43 -24 68t-69 22l-31 -2q-9 4 -9 15q0 9 8 14l13 -1h13q38 0 63.5 22t25.5 60q0 37 -23 59t-62 22q-73 0 -95 -54q6 2 10 2q16 0 16 -15zM152 -14l447 715h55l-447 -715h-55zM635 424h9l11 1v-283h71l-1 -17l-2 -15h-68v-86
q0 -12 16 -12h10v-10l-26 -2l-26 -1l-29 -2l-29 -1v10q32 0 32 12v92h-178v13zM603 338l-135 -196h135v196z" />
    <glyph glyph-name="Lslash" unicode="&#x141;" horiz-adv-x="473" 
d="M312 449v-50l-140 -63v-256q0 -32 38 -32h125q92 0 117 112h16q-7 -72 -13 -160h-410v17h18q27 0 27 33v250l-78 -34v50l78 34v289q0 33 -26 33h-18v17l43 1l42 2l45 1l44 2v-17h-19q-29 0 -29 -33v-259z" />
    <glyph glyph-name="lslash" unicode="&#x142;" horiz-adv-x="250" 
d="M48 689v4q38 3 114 13v-288l80 46v-47l-80 -46v-327q0 -22 24 -22h14v-17q-25 -2 -76 -5q-25 -2 -76 -5v17h14q24 0 24 22v295l-80 -45v47l80 45v280q0 20 -19 20q-19 8 -19 13z" />
    <glyph glyph-name="Zcaron" unicode="&#x17d;" horiz-adv-x="556" 
d="M379 48q66 0 99 29q28 26 40 83h16l-10 -160h-506v9l389 630h-226q-123 0 -131 -98h-15q3 45 11 146h473v-20l-381 -619h241zM121 884h49l101 -102l102 102h49l-120 -154h-62z" />
    <glyph glyph-name="zcaron" unicode="&#x17e;" horiz-adv-x="472" 
d="M49 483h396v-14l-320 -423h216q71 0 90 73h14l-8 -119h-424v19l314 418h-206q-56 0 -65 -57h-14zM83 705h49l101 -102l102 102h49l-120 -154h-62z" />
    <glyph glyph-name="notequal" unicode="&#x2260;" horiz-adv-x="600" 
d="M51 118v57h195l56 135h-251v57h275l47 116h57l-48 -116h173v-57h-196l-56 -135h252v-57h-276l-47 -115h-57l48 115h-172z" />
    <glyph glyph-name="infinity" unicode="&#x221e;" horiz-adv-x="713" 
d="M76 264q0 -41 24.5 -65t66.5 -24q70 0 152 89q-82 89 -152 89q-40 0 -65.5 -27.5t-25.5 -61.5zM357 229q-111 -105 -190 -105q-55 0 -98.5 40.5t-43.5 99.5t43.5 99.5t98.5 40.5q44 0 80 -19q42 -22 110 -86q68 64 110 86q36 19 80 19q55 0 98.5 -40.5t43.5 -99.5
t-43.5 -99.5t-98.5 -40.5q-79 0 -190 105zM638 264q0 34 -24 61q-27 28 -67 28q-70 0 -152 -89q82 -89 152 -89q42 0 66.5 24t24.5 65z" />
    <glyph glyph-name="lessequal" unicode="&#x2264;" horiz-adv-x="600" 
d="M55 46h489v-46h-489v46zM125 295l419 -188v-60l-489 221v54l489 220v-59z" />
    <glyph glyph-name="greaterequal" unicode="&#x2265;" horiz-adv-x="600" 
d="M545 46v-46h-489v46h489zM56 107l418 188l-418 188v59l489 -220v-54l-489 -221v60z" />
    <glyph glyph-name="partialdiff" unicode="&#x2202;" horiz-adv-x="494" 
d="M104 667l-39 50q66 32 130 32q112 0 189 -100t77 -256q0 -163 -62 -282q-69 -132 -185 -132h-5q-70 0 -123 51q-60 56 -60 146q0 93 58.5 159.5t139.5 66.5q71 0 150 -68q11 55 11 111q0 116 -44 185.5t-123 69.5q-46 0 -114 -33zM366 298q-45 64 -108 64q-57 0 -100 -58
q-46 -63 -46 -157q0 -138 90 -138q129 0 164 289z" />
    <glyph glyph-name="summation" unicode="&#x2211;" horiz-adv-x="713" 
d="M617 746l6 -160h-20q-16 63 -40 84q-32 30 -113 30h-263l273 -358l-294 -339h371q57 0 82 21t53 92h23q-33 -135 -43 -224q-66 11 -77 11h-503q-8 0 -19 -1t-13 -1l-26 -1l349 398l-347 455q84 -7 104 -7h497z" />
    <glyph glyph-name="product" unicode="&#x220f;" horiz-adv-x="823" 
d="M706 629v-626q0 -44 20 -62.5t77 -18.5v-23h-306v23q56 0 76 18.5t20 62.5v693h-358v-693q0 -43 19.5 -61t77.5 -20v-23h-307v23q58 0 79 19q18 18 18 62v626q0 99 -95 99v23h773v-23q-94 0 -94 -99z" />
    <glyph glyph-name="pi" unicode="&#x3c0;" horiz-adv-x="549" 
d="M335 401h-113q-11 -118 -46 -351q-14 -69 -65 -69q-22 0 -38 16.5t-16 37.5q0 25 25 51q45 47 50 86l29 229h-47q-52 0 -87 -63h-17q46 149 139 149h373v-86h-126q-12 -100 -12 -235q0 -44 22 -69q18 -21 43 -21t42 20.5t17 54.5h22q-2 -75 -36 -121t-83 -46
q-41 0 -68.5 45t-27.5 123q0 64 20 249z" />
    <glyph glyph-name="integral" unicode="&#x222b;" horiz-adv-x="274" 
d="M192 399q0 -276 -26 -385q-28 -121 -104 -121q-21 0 -39 16q-21 19 -21 44q0 18 14 31t30 13t30.5 -16.5t23.5 -16.5q26 0 26 110q0 -14 -3 95.5t-3 313.5q0 234 18 323q22 110 87 110q26 0 46 -15t20 -41q0 -16 -14 -30t-37 -14q-15 0 -28 12t-23 12q-18 0 -18 -22
q0 -67 10.5 -207t10.5 -212z" />
    <glyph glyph-name="Omega" unicode="&#x3a9;" horiz-adv-x="768" 
d="M313 152l16 -152h-295v162h14q9 -38 21 -49.5t45 -11.5h158l-2 28q-100 23 -158 95t-58 175q0 131 98 212q93 77 233 77t233 -76q98 -80 98 -213q0 -94 -56 -168q-60 -79 -161 -102l-2 -28h158q34 0 46 13q11 10 20 48h15v-162h-296l16 152q62 20 100 79q43 67 43 171
q0 122 -57 188t-157 66q-99 0 -155 -64q-59 -66 -59 -190q0 -106 41 -172q37 -60 101 -78z" />
    <glyph glyph-name="Omega" unicode="&#x2126;" horiz-adv-x="768" 
d="M313 152l16 -152h-295v162h14q9 -38 21 -49.5t45 -11.5h158l-2 28q-100 23 -158 95t-58 175q0 131 98 212q93 77 233 77t233 -76q98 -80 98 -213q0 -94 -56 -168q-60 -79 -161 -102l-2 -28h158q34 0 46 13q11 10 20 48h15v-162h-296l16 152q62 20 100 79q43 67 43 171
q0 122 -57 188t-157 66q-99 0 -155 -64q-59 -66 -59 -190q0 -106 41 -172q37 -60 101 -78z" />
    <glyph glyph-name="radical" unicode="&#x221a;" horiz-adv-x="549" 
d="M26 416l-16 34l146 72l197 -403l127 798l35 -5l-150 -950l-243 501z" />
    <glyph glyph-name="approxequal" unicode="&#x2248;" horiz-adv-x="600" 
d="M509 393l44 -25q-20 -37 -58.5 -58t-78.5 -21q-37 0 -115.5 27.5t-110.5 27.5q-51 0 -95 -60l-44 27q60 79 142 79q35 0 112.5 -25.5t107.5 -25.5q61 0 96 54zM509 201l44 -25q-20 -37 -58.5 -58t-78.5 -21q-37 0 -115.5 27.5t-110.5 27.5q-51 0 -95 -60l-44 27
q60 79 142 79q35 0 112.5 -25.5t107.5 -25.5q61 0 96 54z" />
    <glyph glyph-name="approxequal" unicode="&#x22f2;" horiz-adv-x="600" 
d="M509 393l44 -25q-20 -37 -58.5 -58t-78.5 -21q-37 0 -115.5 27.5t-110.5 27.5q-51 0 -95 -60l-44 27q60 79 142 79q35 0 112.5 -25.5t107.5 -25.5q61 0 96 54zM509 201l44 -25q-20 -37 -58.5 -58t-78.5 -21q-37 0 -115.5 27.5t-110.5 27.5q-51 0 -95 -60l-44 27
q60 79 142 79q35 0 112.5 -25.5t107.5 -25.5q61 0 96 54z" />
    <glyph glyph-name="Delta" unicode="&#x394;" horiz-adv-x="612" 
d="M326 688l282 -688h-602zM290 517l-218 -468h412z" />
    <glyph glyph-name="Delta" unicode="&#x2206;" horiz-adv-x="612" 
d="M326 688l282 -688h-602zM290 517l-218 -468h412z" />
    <glyph glyph-name="lozenge" unicode="&#x25ca;" horiz-adv-x="494" 
d="M272 0h-60l-194 377l194 368h60l194 -368zM406 377l-164 314l-164 -314l164 -323z" />
    <glyph glyph-name="fraction" unicode="&#x2044;" horiz-adv-x="167" 
d="M-167 -14l447 715h55l-447 -715h-55z" />
    <glyph glyph-name="fi" unicode="&#xf001;" horiz-adv-x="528" 
d="M168 44q0 -22 26 -22h16v-17q-27 -2 -80.5 -5t-41.5 -3q-7 0 -41 -2v17h17q28 0 28 22v406h-77q1 8 4 23l3 23h70v50q0 77 53.5 122.5t143.5 45.5t90 -47q0 -38 -22 -45q-10 -2 -12 -2q-11 0 -11 11q0 20 15 23q-17 14 -53 14q-128 0 -128 -120v-52h144v-46h-144v-396z
M379 640q0 8 13.5 26t19.5 18t19.5 -18t13.5 -26t-13.5 -26t-19.5 -18t-19.5 18t-13.5 26zM452 44q0 -22 26 -22h16v-17q-27 -2 -80 -5q-24 -2 -72 -5v17h13q21 0 21 22v412q0 22 -20 22l-16 4q-5 0 -5 4l1 9q41 2 58 3q25 2 58 2v-446z" />
    <glyph glyph-name="fl" unicode="&#xf002;" horiz-adv-x="528" 
d="M358 689l94 17v-662q0 -22 25 -22h15v-17q-26 -2 -78 -5q-24 -2 -71 -5v17q23 0 28 4t5 18v621q0 12 -4 17l1 -11q0 -33 -24 -43q-9 -4 -16 -4q-8 0 -8 9q2 17 10 20q-8 16 -47 16q-121 0 -121 -134v-39h173v-46h-173v-396q0 -22 26 -22h16v-17q-27 -2 -80.5 -5t-41.5 -3
q-7 0 -41 -2v17h17q28 0 28 22v406h-77q0 -10 7 46h70v40q0 86 53 132.5t149 46.5q25 0 52 -10q6 -5 13 -6z" />
    <glyph glyph-name="dotlessi" unicode="&#x131;" horiz-adv-x="250" 
d="M165 44q0 -22 24 -22h14v-17q-25 -2 -76 -5q-25 -2 -76 -5v17h14q24 0 24 21v407q0 20 -19 20q-19 8 -19 18q38 4 114 15v-449z" />
    <glyph glyph-name="breve" unicode="&#x2d8;" horiz-adv-x="250" 
d="M125 555q-132 0 -142 144h33q16 -89 109 -89t109 89h33q-10 -144 -142 -144z" />
    <glyph glyph-name="dotaccent" unicode="&#x2d9;" horiz-adv-x="250" 
d="M125 661q10 0 28 -19.5t18 -30.5t-18 -30.5t-28 -19.5t-28 19.5t-18 30.5t18 30.5t28 19.5z" />
    <glyph glyph-name="ring" unicode="&#x2da;" horiz-adv-x="250" 
d="M125 746q41 0 70.5 -29t29.5 -70t-29.5 -70t-70.5 -29t-70 29t-29 70t29 70t70 29zM125 712q-28 0 -46.5 -18.5t-18.5 -46.5t18.5 -46.5t46.5 -18.5q29 0 47.5 18.5t18.5 46.5t-18.5 46.5t-47.5 18.5z" />
    <glyph glyph-name="hungarumlaut" unicode="&#x2dd;" horiz-adv-x="250" 
d="M25 552l74 102q28 38 45 53h7q31 0 47 -25q-21 -26 -61 -65l-67 -65h-45zM159 552l73 102q28 38 46 53h7q31 0 47 -25q-21 -26 -61 -65l-67 -65h-45z" />
    <glyph glyph-name="ogonek" unicode="&#x2db;" horiz-adv-x="250" 
d="M234 26l-1 -13q-151 -50 -151 -134q0 -21 16.5 -33t39.5 -12q43 0 102 43l13 -30q-67 -57 -145 -57q-39 0 -66 22t-27 57q0 115 219 157z" />
    <glyph glyph-name="caron" unicode="&#x2c7;" horiz-adv-x="250" 
d="M-26 705h49l101 -102l102 102h49l-120 -154h-62z" />
    <glyph glyph-name="udoubleacute" horiz-adv-x="528" 
d="M459 42q0 -21 34 -21v-17q-36 -3 -107 -7v88q-59 -98 -159 -98q-77 0 -118 48t-41 138v268q0 22 -23 20l-12 -1v18q19 1 55.5 4t55.5 4v-328q0 -65 24 -95t78 -30q64 0 96.5 44t40.5 136v227q0 20 -26 20h-14v18q39 3 116 8v-444zM145 552l74 102q28 38 45 53h7
q31 0 47 -25q-21 -26 -61 -65l-67 -65h-45zM279 552l73 102q28 38 46 53h7q31 0 47 -25q-21 -26 -61 -65l-67 -65h-45z" />
    <glyph glyph-name="nonmarkingreturn" horiz-adv-x="250" 
 />
    <glyph glyph-name="lmiddledot" horiz-adv-x="332" 
d="M49 689v4q38 3 114 13v-662q0 -22 24 -22h14l1 -17q-25 -1 -76 -5t-77 -5v17h14q24 0 24 22v622q0 20 -19 20q-19 8 -19 13zM277 366q10 0 28 -19.5t18 -30.5t-18 -30.5t-28 -19.5t-28 19.5t-18 30.5t18 30.5t28 19.5z" />
    <glyph glyph-name="Ehacek" horiz-adv-x="584" 
d="M52 0v17h17q29 0 29 33v587q0 33 -29 33h-17v17h468q2 -70 9 -154h-15q-27 106 -116 106h-159q-59 0 -59 -35v-226h142q41 0 57 12.5t21 47.5h14v-169h-14q-5 35 -21 47.5t-57 12.5h-142v-249q0 -32 38 -32h172q67 0 99 28q29 25 42 84h16q-4 -42 -9 -160h-486zM153 884
h49l101 -102l102 102h49l-120 -154h-62z" />
    <glyph glyph-name="Dhacek" horiz-adv-x="667" 
d="M536 342q0 297 -256 297q-41 0 -57 -4q-32 -6 -45 -30v-525q17 -32 95 -32q263 0 263 294zM96 637q0 33 -28 33h-19v17h248q141 0 236 -97t95 -247q0 -149 -96 -246t-241 -97h-242v17h19q28 0 28 33v587zM127 884h49l101 -102l102 102h49l-120 -154h-62z" />
    <glyph glyph-name="Thacek" horiz-adv-x="528" 
d="M305 53q0 -33 29 -33h20v-17l-181 -6v17h20q29 0 29 33v592h-100q-84 0 -100 -101h-15q3 57 11 149h494l3 -149h-15q-18 101 -100 101h-95v-586zM110 884h49l101 -102l102 102h49l-120 -154h-62z" />
    <glyph glyph-name="lhacek" horiz-adv-x="342" 
d="M49 689v4q38 3 114 13v-662q0 -22 24 -22h14l1 -17q-25 -1 -76 -5t-77 -5v17h14q24 0 24 22v622q0 20 -19 20q-19 8 -19 13zM265 769q18 0 40.5 -24t22.5 -55q-1 -69 -88 -162q-22 16 -29 23q50 50 54 85l1 8q0 14 -15 39q-37 0 -37 31q0 12 19.5 33.5t31.5 21.5z" />
    <glyph glyph-name="nhacek" horiz-adv-x="528" 
d="M458 44q0 -22 22 -22h13l1 -17q-73 -4 -112 -10v338q0 118 -104 118q-56 0 -95 -45.5t-39 -109.5v-252q0 -22 24 -22h15v-17q-25 -1 -75 -5t-75 -5v17h13q22 0 22 21v411q0 20 -17 20q-18 9 -18 18l27 3t26 2q26 2 54 6v-89q61 93 155 93q78 0 120.5 -47.5t42.5 -134.5
v-271zM116 705h49l101 -102l102 102h49l-120 -154h-62z" />
    <glyph glyph-name="dhacek" horiz-adv-x="697" 
d="M440 89q-19 -41 -65 -70q-51 -32 -111 -32q-97 0 -163.5 75t-66.5 183q0 103 71 177.5t172 74.5q103 0 159 -94v253q0 20 -19 20q-20 8 -20 17q38 3 115 13v-671q0 -21 34 -21v-14q-66 -6 -106 -10v99zM439 242q0 95 -45 152t-119 57q-71 0 -115 -59t-44 -150
q0 -93 43 -151t113 -58q74 0 120.5 59t46.5 150zM623 771q18 0 40.5 -24t22.5 -55q-1 -69 -88 -162q-22 16 -29 23q50 50 54 85l1 8q0 14 -15 39q-37 0 -37 31q0 12 19.5 33.5t31.5 21.5z" />
    <glyph glyph-name="rhacek" horiz-adv-x="334" 
d="M147 44q0 -18 17 -21q2 -1 31 -1v-17q-27 -1 -81 -5t-81 -5v17q22 0 26 1q12 4 12 20v411q0 20 -18 20q-18 10 -18 18q66 4 109 11v-129q40 133 154 133q48 0 48 -35q0 -16 -16.5 -29.5t-32.5 -13.5q-15 0 -15 11q0 12 12 20q-2 0 -7 1h-8q-69 0 -105 -98
q-27 -73 -27 -156v-153zM44 705h49l101 -102l102 102h49l-120 -154h-62z" />
    <glyph glyph-name="Udoubleacute" horiz-adv-x="667" 
d="M529 237v393q0 42 -37 42h-17v17q75 2 150 6v-17h-15q-33 0 -33 -42v-410q0 -115 -65 -178t-182 -63q-118 0 -180.5 57t-62.5 167v430q0 33 -29 33h-19l1 17q89 2 177 6v-17h-19q-29 0 -29 -33v-433q0 -86 43.5 -132.5t123.5 -46.5q94 0 143.5 52.5t49.5 151.5zM224 731
l74 102q28 38 45 53h7q31 0 47 -25q-21 -26 -61 -65l-67 -65h-45zM358 731l73 102q28 38 46 53h7q31 0 47 -25q-21 -26 -61 -65l-67 -65h-45z" />
    <glyph glyph-name="Nhacek" horiz-adv-x="695" 
d="M547 159v480q0 33 -30 33h-20v17h145v-11h-18q-26 0 -26 -33v-658h-18l-7 11l-422 549v-494q0 -33 32 -33h21v-23h-154v17h20q30 0 30 33v611l-8 8q-10 13 -28 13h-14v17h86zM201 884h49l101 -102l102 102h49l-120 -154h-62z" />
    <glyph glyph-name="Odoubleacute" horiz-adv-x="750" 
d="M627 343q0 141 -68.5 225.5t-184.5 84.5q-115 0 -183.5 -85t-68.5 -225t68.5 -225t183.5 -85q116 0 184.5 84.5t68.5 225.5zM718 343q0 -150 -99.5 -254t-244.5 -104q-144 0 -243.5 104t-99.5 254t99.5 254t243.5 104q145 0 244.5 -104t99.5 -254zM258 731l74 102
q28 38 45 53h7q31 0 47 -25q-21 -26 -61 -65l-67 -65h-45zM392 731l73 102q28 38 46 53h7q31 0 47 -25q-21 -26 -61 -65l-67 -65h-45z" />
    <glyph glyph-name="Lmiddledot" horiz-adv-x="473" 
d="M172 645v-565q0 -32 38 -32h123q92 0 117 112h16q-6 -56 -13 -160h-408v17h18q27 0 27 33v589q0 33 -26 33h-18v17h174v-11h-19q-29 0 -29 -33zM305 366q10 0 28 -19.5t18 -30.5t-18 -30.5t-28 -19.5t-28 19.5t-18 30.5t18 30.5t28 19.5z" />
    <glyph glyph-name="Lhacek" horiz-adv-x="473" 
d="M172 645v-565q0 -32 38 -32h123q92 0 117 112h16q-6 -56 -13 -160h-408v17h18q27 0 27 33v589q0 33 -26 33h-18v17h174v-11h-19q-29 0 -29 -33zM339 709q18 0 40.5 -24t22.5 -55q-1 -69 -88 -162q-22 16 -29 23q50 50 54 85l1 8q0 14 -15 39q-37 0 -37 31q0 12 19.5 33.5
t31.5 21.5z" />
    <glyph glyph-name="ehacek" 
d="M464 76q-71 -89 -196 -89q-101 0 -170.5 74t-69.5 181q0 109 68.5 182t171.5 73q83 0 141 -53q55 -50 65 -127l-360 -123q12 -62 43 -101q48 -60 125 -60q95 0 170 86q3 -7 6 -21.5t6 -21.5zM110 237l267 103q-18 111 -110 111q-75 0 -116 -53t-41 -147v-14zM111 705h49
l101 -102l102 102h49l-120 -154h-62z" />
    <glyph glyph-name="Chacek" horiz-adv-x="612" 
d="M126 344q0 -135 68.5 -223t175.5 -88q71 0 118.5 39t62.5 103q3 -9 10 -38q-15 -74 -67.5 -113t-133.5 -39q-138 0 -232 102.5t-94 254.5q0 147 98 252.5t234 105.5q45 0 99 -20l54 -24q13 0 20 19h12q0 -109 -9 -154q-64 131 -174 131q-113 0 -177.5 -83.5t-64.5 -224.5
zM195 884h49l101 -102l102 102h49l-120 -154h-62z" />
    <glyph glyph-name="chacek" 
d="M438 103q6 -4 16 -13.5l15 -14.5q-71 -88 -189 -88q-108 0 -179 72.5t-71 181.5q0 106 77.5 181t187.5 75q66 0 119 -34q49 -31 49 -63q0 -26 -38 -33q-11 -2 -15 -2q-20 0 -26 17q0 16 11.5 20t14.5 4l10 -1q-39 46 -124 46q-84 0 -133.5 -56t-49.5 -149
q0 -94 49.5 -153.5t128.5 -59.5q51 0 98 27q35 21 49 43zM127 705h49l101 -102l102 102h49l-120 -154h-62z" />
    <glyph glyph-name="dbar" horiz-adv-x="589" 
d="M297 615h141v41q0 20 -19 20q-20 8 -20 17q38 3 115 13v-91h76v-52h-76v-528q0 -21 34 -21v-14q-66 -6 -106 -10v99q-19 -41 -65 -70q-51 -32 -112 -32q-98 0 -165 75t-67 183q0 103 71.5 177.5t173.5 74.5q104 0 160 -94v160h-141v52zM441 243q0 95 -45 151.5t-120 56.5
q-72 0 -116.5 -59t-44.5 -150q0 -93 43.5 -151t114.5 -58q74 0 121 59.5t47 150.5z" />
    <glyph glyph-name="Rhacek" horiz-adv-x="556" 
d="M177 330v-278q0 -32 30 -32h20v-23h-179v17h19q28 0 28 33v590q0 33 -28 33h-19v17h244q97 0 155 -51t58 -138q0 -77 -52 -126q-55 -50 -152 -57q76 -46 177 -205q0 -1 18 -39q13 -27 20 -27q18 0 21 40h14q-6 -41 -30.5 -66t-64.5 -22q-23 2 -53 71q-116 269 -199 263
l-15 -1zM177 355l47 -1h48q146 0 146 132q0 153 -151 153q-75 0 -90 -31v-253zM101 884h49l101 -102l102 102h49l-120 -154h-62z" />
    <glyph glyph-name="odoubleacute" horiz-adv-x="556" 
d="M529 242q0 -107 -73 -181t-178 -74t-177.5 74t-72.5 181t72.5 181t177.5 74q106 0 178.5 -74t72.5 -181zM446 242q0 96 -45 152.5t-123 56.5t-122.5 -56.5t-44.5 -152.5t44.5 -152.5t122.5 -56.5t123 56.5t45 152.5zM162 552l74 102q28 38 45 53h7q31 0 47 -25
q-21 -26 -61 -65l-67 -65h-45zM296 552l73 102q28 38 46 53h7q31 0 47 -25q-21 -26 -61 -65l-67 -65h-45z" />
    <glyph glyph-name="thacek" horiz-adv-x="446" 
d="M149 113q0 -44 17 -61.5t59 -17.5q33 0 57 67l14 -27q-9 -22 -21 -39q-28 -40 -68 -45q-11 -1 -21 -1q-54 0 -83.5 36.5t-29.5 97.5v317h-69l7 46q51 0 74 32q16 12 30 61q15 57 18 62h16v-155h138v-46h-138v-327zM363 709q18 0 40.5 -24t22.5 -55q-1 -69 -88 -162
q-22 16 -29 23q50 50 54 85l1 8q0 14 -15 39q-37 0 -37 31q0 12 19.5 33.5t31.5 21.5z" />
    <glyph glyph-name=".null" horiz-adv-x="0" 
 />
    <glyph glyph-name="middot" unicode="&#x25ef;" horiz-adv-x="250" 
d="M118 300q12 0 33.5 -22t21.5 -35t-21.5 -35t-33.5 -22t-33.5 22t-21.5 35t21.5 35t33.5 22z" />
    <glyph glyph-name="Dbar" unicode="&#x189;" horiz-adv-x="667" 
d="M179 389h183v-53h-183v-256q17 -32 95 -32q263 0 263 294q0 297 -256 297q-41 0 -57 -4q-32 -6 -45 -30v-216zM19 389h78v251q0 32 -28 32h-19v15h248q141 0 236 -97t95 -247q0 -149 -96 -246t-241 -97h-242v17h19q28 0 28 33v286h-78v53z" />
    <glyph glyph-name="zdot" unicode="&#x17c;" horiz-adv-x="472" 
d="M49 483h396v-14l-320 -423h216q71 0 90 73h14l-8 -119h-424v19l314 418h-206q-56 0 -65 -57h-14zM239 661q10 0 28 -19.5t18 -30.5t-18 -30.5t-28 -19.5t-28 19.5t-18 30.5t18 30.5t28 19.5z" />
    <glyph glyph-name="Zdot" unicode="&#x17b;" horiz-adv-x="556" 
d="M379 48q66 0 99 29q28 26 40 83h16l-10 -160h-506v9l389 630h-226q-123 0 -131 -98h-15q3 45 11 146h473v-20l-381 -619h241zM277 840q10 0 28 -19.5t18 -30.5t-18 -30.5t-28 -19.5t-28 19.5t-18 30.5t18 30.5t28 19.5z" />
    <glyph glyph-name="zacute" unicode="&#x17a;" horiz-adv-x="472" 
d="M49 483h396v-14l-320 -423h216q71 0 90 73h14l-8 -119h-424v19l314 418h-206q-56 0 -65 -57h-14zM168 552l87 96q39 43 62 59q43 0 52 -25q-18 -21 -69 -62l-86 -68h-46z" />
    <glyph glyph-name="Zacute" unicode="&#x179;" horiz-adv-x="556" 
d="M379 48q66 0 99 29q28 26 40 83h16l-10 -160h-506v9l389 630h-226q-123 0 -131 -98h-15q3 45 11 146h473v-20l-381 -619h241zM206 731l87 96q39 43 62 59q43 0 52 -25q-18 -21 -69 -62l-86 -68h-46z" />
    <glyph glyph-name="uogonek" unicode="&#x173;" horiz-adv-x="528" 
d="M459 42q0 -21 34 -21v-17q-36 -3 -107 -7v88q-59 -98 -159 -98q-77 0 -118 48t-41 138v268q0 22 -23 20l-12 -1v18q19 1 55.5 4t55.5 4v-328q0 -65 24 -95t78 -30q64 0 96.5 44t40.5 136v227q0 20 -26 20h-14v18q39 3 116 8v-444zM493 26l-1 -13q-151 -50 -151 -134
q0 -21 16.5 -33t39.5 -12q43 0 102 43l13 -30q-67 -57 -145 -57q-39 0 -66 22t-27 57q0 115 219 157z" />
    <glyph glyph-name="Uogonek" unicode="&#x172;" horiz-adv-x="667" 
d="M529 237v393q0 42 -37 42h-17v17q75 2 150 6v-17h-15q-33 0 -33 -42v-410q0 -115 -65 -178t-182 -63q-118 0 -180.5 57t-62.5 167v430q0 33 -29 33h-19l1 17q89 2 177 6v-17h-19q-29 0 -29 -33v-433q0 -86 43.5 -132.5t123.5 -46.5q94 0 143.5 52.5t49.5 151.5zM435 26
l-1 -13q-151 -50 -151 -134q0 -21 16.5 -33t39.5 -12q43 0 102 43l13 -30q-67 -57 -145 -57q-39 0 -66 22t-27 57q0 115 219 157z" />
    <glyph glyph-name="uring" unicode="&#x16f;" horiz-adv-x="528" 
d="M459 42q0 -21 34 -21v-17q-36 -3 -107 -7v88q-59 -98 -159 -98q-77 0 -118 48t-41 138v268q0 22 -23 20l-12 -1v18q19 1 55.5 4t55.5 4v-328q0 -65 24 -95t78 -30q64 0 96.5 44t40.5 136v227q0 20 -26 20h-14v18q39 3 116 8v-444zM260 746q41 0 70.5 -29t29.5 -70
t-29.5 -70t-70.5 -29t-70 29t-29 70t29 70t70 29zM260 712q-28 0 -46.5 -18.5t-18.5 -46.5t18.5 -46.5t46.5 -18.5q29 0 47.5 18.5t18.5 46.5t-18.5 46.5t-47.5 18.5z" />
    <glyph glyph-name="Uring" unicode="&#x16e;" horiz-adv-x="667" 
d="M529 237v393q0 42 -37 42h-17v17q75 2 150 6v-17h-15q-33 0 -33 -42v-410q0 -115 -65 -178t-182 -63q-118 0 -180.5 57t-62.5 167v430q0 33 -29 33h-19l1 17q89 2 177 6v-17h-19q-29 0 -29 -33v-433q0 -86 43.5 -132.5t123.5 -46.5q94 0 143.5 52.5t49.5 151.5zM339 925
q41 0 70.5 -29t29.5 -70t-29.5 -70t-70.5 -29t-70 29t-29 70t29 70t70 29zM339 891q-28 0 -46.5 -18.5t-18.5 -46.5t18.5 -46.5t46.5 -18.5q29 0 47.5 18.5t18.5 46.5t-18.5 46.5t-47.5 18.5z" />
    <glyph glyph-name="umacron" unicode="&#x16b;" horiz-adv-x="528" 
d="M459 42q0 -21 34 -21v-17q-36 -3 -107 -7v88q-59 -98 -159 -98q-77 0 -118 48t-41 138v268q0 22 -23 20l-12 -1v18q19 1 55.5 4t55.5 4v-328q0 -65 24 -95t78 -30q64 0 96.5 44t40.5 136v227q0 20 -26 20h-14v18q39 3 116 8v-444zM106 638h302v-52h-302v52z" />
    <glyph glyph-name="Umacron" unicode="&#x16a;" horiz-adv-x="667" 
d="M529 237v393q0 42 -37 42h-17v17q75 2 150 6v-17h-15q-33 0 -33 -42v-410q0 -115 -65 -178t-182 -63q-118 0 -180.5 57t-62.5 167v430q0 33 -29 33h-19l1 17q89 2 177 6v-17h-19q-29 0 -29 -33v-433q0 -86 43.5 -132.5t123.5 -46.5q94 0 143.5 52.5t49.5 151.5zM185 817
h302v-52h-302v52z" />
    <glyph glyph-name="tcedilla" unicode="&#x163;" horiz-adv-x="306" 
d="M149 113q0 -44 17 -61.5t59 -17.5q33 0 57 67l14 -27q-9 -22 -21 -39q-28 -40 -68 -45q-11 -1 -21 -1q-54 0 -83.5 36.5t-29.5 97.5v317h-69l7 46q51 0 74 32q16 12 30 61q15 57 18 62h16v-155h138v-46h-138v-327zM65 -190q5 10 14 31q36 -13 65 -13q60 0 60 42
q0 41 -51 38l-19 -1q-7 -2 -18 -3l-11 9l56 96h36l-44 -70q6 3 18 5l18 1q35 2 58 -19t23 -53q0 -37 -32.5 -59.5t-84.5 -22.5q-40 0 -88 19z" />
    <glyph glyph-name="Tcedilla" unicode="&#x162;" horiz-adv-x="528" 
d="M305 53q0 -33 29 -33h20v-17l-181 -6v17h20q29 0 29 33v592h-100q-84 0 -100 -101h-15q3 57 11 149h494l3 -149h-15q-18 101 -100 101h-95v-586zM141 -190q5 10 14 31q36 -13 65 -13q60 0 60 42q0 41 -51 38l-19 -1q-7 -2 -18 -3l-11 9l56 96h36l-44 -70q6 3 18 5l18 1
q35 2 58 -19t23 -53q0 -37 -32.5 -59.5t-84.5 -22.5q-40 0 -88 19z" />
    <glyph glyph-name="sacute" unicode="&#x15b;" horiz-adv-x="417" 
d="M385 143q0 -70 -50 -113t-132 -43q-86 0 -153 58q-12 0 -14 -16h-14v86q6 4 18 10l18 9q43 -101 148 -101q46 0 78.5 24.5t32.5 60.5q0 41 -31 63t-99 36q-157 32 -157 141q0 60 48.5 99.5t116.5 39.5q43 0 89 -17q36 -14 55 -30q9 0 11 13h16v-73q-16 -12 -33 -23
q-39 84 -136 84q-48 0 -73.5 -20.5t-25.5 -54.5q0 -32 26 -52t93 -35q94 -21 131 -55.5t37 -90.5zM136 552l87 96q39 43 62 59q43 0 52 -25q-18 -21 -69 -62l-86 -68h-46z" />
    <glyph glyph-name="Sacute" unicode="&#x15a;" horiz-adv-x="528" 
d="M496 201q0 -100 -63.5 -158t-170.5 -58q-53 0 -110 29q-50 25 -77 57q-8 0 -23 -24h-14v130q14 6 39 19q16 -66 68 -113q57 -50 131 -50q62 0 103.5 37t41.5 92q0 63 -42 98q-38 31 -132 56q-109 29 -155 73t-46 120q0 83 59 137.5t150 54.5q87 0 178 -71q7 0 15 20l1 3
h16v-116l-34 -22q-18 55 -60 93q-49 45 -111 45q-64 0 -102 -32t-38 -89q0 -95 165 -138q113 -29 162 -75t49 -118zM200 731l87 96q39 43 62 59q43 0 52 -25q-18 -21 -69 -62l-86 -68h-46z" />
    <glyph glyph-name="rcedilla" unicode="&#x157;" horiz-adv-x="334" 
d="M147 44q0 -18 17 -21q2 -1 31 -1v-17q-27 -1 -81 -5t-81 -5v17q22 0 26 1q12 4 12 20v411q0 20 -18 20q-18 10 -18 18q66 4 109 11v-129q40 133 154 133q48 0 48 -35q0 -16 -16.5 -29.5t-32.5 -13.5q-15 0 -15 11q0 12 12 20q-2 0 -7 1h-8q-69 0 -105 -98
q-27 -73 -27 -156v-153zM-5 -190q5 10 14 31q36 -13 65 -13q60 0 60 42q0 41 -51 38l-19 -1q-7 -2 -18 -3l-11 9l56 96h36l-44 -70q6 3 18 5l18 1q35 2 58 -19t23 -53q0 -37 -32.5 -59.5t-84.5 -22.5q-40 0 -88 19z" />
    <glyph glyph-name="Rcedilla" unicode="&#x156;" horiz-adv-x="556" 
d="M177 330v-278q0 -32 30 -32h20v-23h-179v17h19q28 0 28 33v590q0 33 -28 33h-19v17h244q97 0 155 -51t58 -138q0 -77 -52 -126q-55 -50 -152 -57q76 -46 177 -205q0 -1 18 -39q13 -27 20 -27q18 0 21 40h14q-6 -41 -30.5 -66t-64.5 -22q-23 2 -53 71q-116 269 -199 263
l-15 -1zM177 355l47 -1h48q146 0 146 132q0 153 -151 153q-75 0 -90 -31v-253zM15 -190q5 10 14 31q36 -13 65 -13q60 0 60 42q0 41 -51 38l-19 -1q-7 -2 -18 -3l-11 9l56 96h36l-44 -70q6 3 18 5l18 1q35 2 58 -19t23 -53q0 -37 -32.5 -59.5t-84.5 -22.5q-40 0 -88 19z" />
    <glyph glyph-name="racute" unicode="&#x155;" horiz-adv-x="334" 
d="M147 44q0 -18 17 -21q2 -1 31 -1v-17q-27 -1 -81 -5t-81 -5v17q22 0 26 1q12 4 12 20v411q0 20 -18 20q-18 10 -18 18q66 4 109 11v-129q40 133 154 133q48 0 48 -35q0 -16 -16.5 -29.5t-32.5 -13.5q-15 0 -15 11q0 12 12 20q-2 0 -7 1h-8q-69 0 -105 -98
q-27 -73 -27 -156v-153zM129 552l87 96q39 43 62 59q43 0 52 -25q-18 -21 -69 -62l-86 -68h-46z" />
    <glyph glyph-name="Racute" unicode="&#x154;" horiz-adv-x="556" 
d="M177 330v-278q0 -32 30 -32h20v-23h-179v17h19q28 0 28 33v590q0 33 -28 33h-19v17h244q97 0 155 -51t58 -138q0 -77 -52 -126q-55 -50 -152 -57q76 -46 177 -205q0 -1 18 -39q13 -27 20 -27q18 0 21 40h14q-6 -41 -30.5 -66t-64.5 -22q-23 2 -53 71q-116 269 -199 263
l-15 -1zM177 355l47 -1h48q146 0 146 132q0 153 -151 153q-75 0 -90 -31v-253zM186 731l87 96q39 43 62 59q43 0 52 -25q-18 -21 -69 -62l-86 -68h-46z" />
    <glyph glyph-name="omacron" unicode="&#x14d;" horiz-adv-x="556" 
d="M529 242q0 -107 -73 -181t-178 -74t-177.5 74t-72.5 181t72.5 181t177.5 74q106 0 178.5 -74t72.5 -181zM446 242q0 96 -45 152.5t-123 56.5t-122.5 -56.5t-44.5 -152.5t44.5 -152.5t122.5 -56.5t123 56.5t45 152.5zM123 638h302v-52h-302v52z" />
    <glyph glyph-name="Omacron" unicode="&#x14c;" horiz-adv-x="750" 
d="M627 343q0 141 -68.5 225.5t-184.5 84.5q-115 0 -183.5 -85t-68.5 -225t68.5 -225t183.5 -85q116 0 184.5 84.5t68.5 225.5zM718 343q0 -150 -99.5 -254t-244.5 -104q-144 0 -243.5 104t-99.5 254t99.5 254t243.5 104q145 0 244.5 -104t99.5 -254zM219 817h302v-52h-302
v52z" />
    <glyph glyph-name="ncedilla" unicode="&#x146;" horiz-adv-x="528" 
d="M458 44q0 -22 22 -22h13l1 -17q-73 -4 -112 -10v338q0 118 -104 118q-56 0 -95 -45.5t-39 -109.5v-252q0 -22 24 -22h15v-17q-25 -1 -75 -5t-75 -5v17h13q22 0 22 21v411q0 20 -17 20q-18 9 -18 18l27 3t26 2q26 2 54 6v-89q61 93 155 93q78 0 120.5 -47.5t42.5 -134.5
v-271zM-2 -190q5 10 14 31q36 -13 65 -13q60 0 60 42q0 41 -51 38l-19 -1q-7 -2 -18 -3l-11 9l56 96h36l-44 -70q6 3 18 5l18 1q35 2 58 -19t23 -53q0 -37 -32.5 -59.5t-84.5 -22.5q-40 0 -88 19z" />
    <glyph glyph-name="Ncedilla" unicode="&#x145;" horiz-adv-x="695" 
d="M547 159v480q0 33 -30 33h-20v17h145v-11h-18q-26 0 -26 -33v-658h-18l-7 11l-422 549v-494q0 -33 32 -33h21v-23h-154v17h20q30 0 30 33v611l-8 8q-10 13 -28 13h-14v17h86zM7 -190q5 10 14 31q36 -13 65 -13q60 0 60 42q0 41 -51 38l-19 -1q-7 -2 -18 -3l-11 9l56 96
h36l-44 -70q6 3 18 5l18 1q35 2 58 -19t23 -53q0 -37 -32.5 -59.5t-84.5 -22.5q-40 0 -88 19z" />
    <glyph glyph-name="nacute" unicode="&#x144;" horiz-adv-x="528" 
d="M458 44q0 -22 22 -22h13l1 -17q-73 -4 -112 -10v338q0 118 -104 118q-56 0 -95 -45.5t-39 -109.5v-252q0 -22 24 -22h15v-17q-25 -1 -75 -5t-75 -5v17h13q22 0 22 21v411q0 20 -17 20q-18 9 -18 18l27 3t26 2q26 2 54 6v-89q61 93 155 93q78 0 120.5 -47.5t42.5 -134.5
v-271zM201 552l87 96q39 43 62 59q43 0 52 -25q-18 -21 -69 -62l-86 -68h-46z" />
    <glyph glyph-name="Nacute" unicode="&#x143;" horiz-adv-x="695" 
d="M547 159v480q0 33 -30 33h-20v17h145v-11h-18q-26 0 -26 -33v-658h-18l-7 11l-422 549v-494q0 -33 32 -33h21v-23h-154v17h20q30 0 30 33v611l-8 8q-10 13 -28 13h-14v17h86zM286 731l87 96q39 43 62 59q43 0 52 -25q-18 -21 -69 -62l-86 -68h-46z" />
    <glyph glyph-name="lcedilla" unicode="&#x13c;" horiz-adv-x="250" 
d="M49 689v4q38 3 114 13v-662q0 -22 24 -22h14l1 -17q-25 -1 -76 -5t-77 -5v17h14q24 0 24 22v622q0 20 -19 20q-19 8 -19 13zM10 -190q5 10 14 31q36 -13 65 -13q60 0 60 42q0 41 -51 38l-19 -1q-7 -2 -18 -3l-11 9l56 96h36l-44 -70q6 3 18 5l18 1q35 2 58 -19t23 -53
q0 -37 -32.5 -59.5t-84.5 -22.5q-40 0 -88 19z" />
    <glyph glyph-name="Lcedilla" unicode="&#x13b;" horiz-adv-x="473" 
d="M172 645v-565q0 -32 38 -32h123q92 0 117 112h16q-6 -56 -13 -160h-408v17h18q27 0 27 33v589q0 33 -26 33h-18v17h174v-11h-19q-29 0 -29 -33zM138 -190q5 10 14 31q36 -13 65 -13q60 0 60 42q0 41 -51 38l-19 -1q-7 -2 -18 -3l-11 9l56 96h36l-44 -70q6 3 18 5l18 1
q35 2 58 -19t23 -53q0 -37 -32.5 -59.5t-84.5 -22.5q-40 0 -88 19z" />
    <glyph glyph-name="lacute" unicode="&#x13a;" horiz-adv-x="250" 
d="M49 689v4q38 3 114 13v-662q0 -22 24 -22h14l1 -17q-25 -1 -76 -5t-77 -5v17h14q24 0 24 22v622q0 20 -19 20q-19 8 -19 13zM63 757l87 96q39 43 62 59q43 0 52 -25q-18 -21 -69 -62l-86 -68h-46z" />
    <glyph glyph-name="Lacute" unicode="&#x139;" horiz-adv-x="473" 
d="M172 645v-565q0 -32 38 -32h123q92 0 117 112h16q-6 -56 -13 -160h-408v17h18q27 0 27 33v589q0 33 -26 33h-18v17h174v-11h-19q-29 0 -29 -33zM127 731l87 96q39 43 62 59q43 0 52 -25q-18 -21 -69 -62l-86 -68h-46z" />
    <glyph glyph-name="kcedilla" unicode="&#x137;" horiz-adv-x="473" 
d="M42 689v4q37 3 112 13v-464l197 206q14 11 14 17l-1 4q-5 9 -35 9v16q77 -9 136 -14v-16q-28 0 -44 -17l-167 -177l182 -219q13 -21 40 -21v-17q-14 -2 -44 -8.5t-45 -8.5l-206 242q-18 -18 -27 -29v-165q0 -22 23 -22h14l-1 -17q-25 -1 -75 -5t-75 -5v17h14q24 0 24 22
v622q0 20 -18 20q-18 8 -18 13zM-4 -190q5 10 14 31q36 -13 65 -13q60 0 60 42q0 41 -51 38l-19 -1q-7 -2 -18 -3l-11 9l56 96h36l-44 -70q6 3 18 5l18 1q35 2 58 -19t23 -53q0 -37 -32.5 -59.5t-84.5 -22.5q-40 0 -88 19z" />
    <glyph glyph-name="Kcedilla" unicode="&#x136;" horiz-adv-x="584" 
d="M182 53q0 -33 26 -33h17v-23h-173v17h19q29 0 29 33v592q0 33 -29 33h-19v17l44 1l45 2l42 1l42 2v-17h-17q-26 0 -26 -33v-154q0 -102 3 -153l264 302q11 17 11 28q-2 11 -41 11v17l80 -6q72 -6 80 -6v-17q-34 0 -57 -26l-225 -252l246 -329q19 -32 54 -32v-17
q-29 -3 -86 -8q-14 -1 -42.5 -4t-42.5 -4v17q24 0 31 6q2 2 2 6q0 9 -13 30l-224 293l-40 -42v-252zM18 -190q5 10 14 31q36 -13 65 -13q60 0 60 42q0 41 -51 38l-19 -1q-7 -2 -18 -3l-11 9l56 96h36l-44 -70q6 3 18 5l18 1q35 2 58 -19t23 -53q0 -37 -32.5 -59.5
t-84.5 -22.5q-40 0 -88 19z" />
    <glyph glyph-name="iogonek" unicode="&#x12f;" horiz-adv-x="250" 
d="M66 649q0 10 20.5 32t30.5 22t30.5 -22t20.5 -32t-20.5 -32t-30.5 -22t-30.5 22t-20.5 32zM163 44q0 -22 24 -22h14l1 -17q-25 -1 -76 -5t-77 -5v17h14q24 0 24 21v407q0 20 -19 20q-19 8 -19 18q38 4 114 15v-449zM224 26l-1 -13q-151 -50 -151 -134q0 -21 16.5 -33
t39.5 -12q43 0 102 43l13 -30q-67 -57 -145 -57q-39 0 -66 22t-27 57q0 115 219 157z" />
    <glyph glyph-name="Iogonek" unicode="&#x12e;" horiz-adv-x="278" 
d="M180 53q0 -25 13 -31q5 -2 35 -2v-23h-178v17q30 0 35 2q13 6 13 31v592q0 25 -13 31q-5 2 -35 2v17h178v-11q-30 0 -35 -2q-13 -6 -13 -31v-592zM219 26l-1 -13q-151 -50 -151 -134q0 -21 16.5 -33t39.5 -12q43 0 102 43l13 -30q-67 -57 -145 -57q-39 0 -66 22t-27 57
q0 115 219 157z" />
    <glyph glyph-name="imacron" unicode="&#x12b;" horiz-adv-x="250" 
d="M165 44q0 -22 24 -22h14v-17q-25 -2 -76 -5q-25 -2 -76 -5v17h14q24 0 24 21v407q0 20 -19 20q-19 8 -19 18q38 4 114 15v-449zM-36 638h302v-52h-302v52z" />
    <glyph glyph-name="Imacron" unicode="&#x12a;" horiz-adv-x="278" 
d="M180 53q0 -25 13 -31q5 -2 35 -2v-23h-178v17q30 0 35 2q13 6 13 31v592q0 25 -13 31q-5 2 -35 2v17h178v-11q-30 0 -35 -2q-13 -6 -13 -31v-592zM-15 817h302v-52h-302v52z" />
    <glyph glyph-name="gcedilla" unicode="&#x123;" 
d="M243 453q-55 0 -89.5 -34.5t-34.5 -90.5q0 -57 33 -91.5t90 -34.5q54 0 87 34.5t33 90.5t-33.5 91t-85.5 35zM40 326q0 74 56.5 122.5t140.5 48.5q31 0 65 -9q103 45 139 45q31 0 31 -27q0 -20 -21 -21l-25 -1q-53 0 -60 -24q6 -4 15 -11q60 -48 60 -121
q0 -70 -55.5 -115.5t-138.5 -45.5q-60 0 -95 16l-3 -1q-18 -6 -18 -15q0 -17 39 -23q24 -3 106.5 -5t134.5 -40q56 -41 56 -112q0 -79 -69.5 -129t-168.5 -50q-79 0 -148 42t-69 83q0 48 103 58q10 1 31 4q-77 -16 -77 -40q0 -29 49 -63q54 -38 117 -38q67 0 115 29
q53 32 53 84q0 49 -47 82t-126 31l-35 -1q-2 0 -60 2q-54 2 -54 28q0 17 22 44q20 24 38 34q-101 48 -101 139zM179 552l87 96q39 43 62 59q43 0 52 -25q-18 -21 -69 -62l-86 -68h-46z" />
    <glyph glyph-name="Gcedilla" unicode="&#x122;" horiz-adv-x="695" 
d="M125 338q0 -133 68.5 -219t175.5 -86q129 0 163 109v107q0 29 -12 40t-43 11h-113l10 49h285v-18h-6q-39 0 -39 -30v-262h-19q-8 24 -17 24q-33 -29 -86 -51q-67 -27 -129 -27q-133 0 -231.5 104t-98.5 246q0 156 96.5 261t241.5 105q104 0 200 -70h2q5 -1 14 14h15v-116
q-6 -4 -17 -12t-17 -12q-26 70 -79 109t-115 39q-117 0 -183 -84.5t-66 -230.5zM250 -190q5 10 14 31q36 -13 65 -13q60 0 60 42q0 41 -51 38l-19 -1q-7 -2 -18 -3l-11 9l56 96h36l-44 -70q6 3 18 5l18 1q35 2 58 -19t23 -53q0 -37 -32.5 -59.5t-84.5 -22.5q-40 0 -88 19z
" />
    <glyph glyph-name="eogonek" unicode="&#x119;" 
d="M464 76q-71 -89 -196 -89q-101 0 -170.5 74t-69.5 181q0 109 68.5 182t171.5 73q83 0 141 -53q55 -50 65 -127l-360 -123q12 -62 43 -101q48 -60 125 -60q95 0 170 86q3 -7 6 -21.5t6 -21.5zM110 237l267 103q-18 111 -110 111q-75 0 -116 -53t-41 -147v-14zM384 26
l-1 -13q-151 -50 -151 -134q0 -21 16.5 -33t39.5 -12q43 0 102 43l13 -30q-67 -57 -145 -57q-39 0 -66 22t-27 57q0 115 219 157z" />
    <glyph glyph-name="Eogonek" unicode="&#x118;" horiz-adv-x="584" 
d="M52 0v17h17q29 0 29 33v587q0 33 -29 33h-17v17h468q2 -70 9 -154h-15q-27 106 -116 106h-159q-59 0 -59 -35v-226h142q41 0 57 12.5t21 47.5h14v-169h-14q-5 35 -21 47.5t-57 12.5h-142v-249q0 -32 38 -32h172q67 0 99 28q29 25 42 84h16q-4 -42 -9 -160h-486zM484 26
l-1 -13q-151 -50 -151 -134q0 -21 16.5 -33t39.5 -12q43 0 102 43l13 -30q-67 -57 -145 -57q-39 0 -66 22t-27 57q0 115 219 157z" />
    <glyph glyph-name="edot" unicode="&#x117;" 
d="M464 76q-71 -89 -196 -89q-101 0 -170.5 74t-69.5 181q0 109 68.5 182t171.5 73q83 0 141 -53q55 -50 65 -127l-360 -123q12 -62 43 -101q48 -60 125 -60q95 0 170 86q3 -7 6 -21.5t6 -21.5zM110 237l267 103q-18 111 -110 111q-75 0 -116 -53t-41 -147v-14zM267 661
q10 0 28 -19.5t18 -30.5t-18 -30.5t-28 -19.5t-28 19.5t-18 30.5t18 30.5t28 19.5z" />
    <glyph glyph-name="Edot" unicode="&#x116;" horiz-adv-x="584" 
d="M52 0v17h17q29 0 29 33v587q0 33 -29 33h-17v17h468q2 -70 9 -154h-15q-27 106 -116 106h-159q-59 0 -59 -35v-226h142q41 0 57 12.5t21 47.5h14v-169h-14q-5 35 -21 47.5t-57 12.5h-142v-249q0 -32 38 -32h172q67 0 99 28q29 25 42 84h16q-4 -42 -9 -160h-486zM309 840
q10 0 28 -19.5t18 -30.5t-18 -30.5t-28 -19.5t-28 19.5t-18 30.5t18 30.5t28 19.5z" />
    <glyph glyph-name="emacron" unicode="&#x113;" 
d="M464 76q-71 -89 -196 -89q-101 0 -170.5 74t-69.5 181q0 109 68.5 182t171.5 73q83 0 141 -53q55 -50 65 -127l-360 -123q12 -62 43 -101q48 -60 125 -60q95 0 170 86q3 -7 6 -21.5t6 -21.5zM110 237l267 103q-18 111 -110 111q-75 0 -116 -53t-41 -147v-14zM110 638h302
v-52h-302v52z" />
    <glyph glyph-name="Emacron" unicode="&#x112;" horiz-adv-x="584" 
d="M52 0v17h17q29 0 29 33v587q0 33 -29 33h-17v17h468q2 -70 9 -154h-15q-27 106 -116 106h-159q-59 0 -59 -35v-226h142q41 0 57 12.5t21 47.5h14v-169h-14q-5 35 -21 47.5t-57 12.5h-142v-249q0 -32 38 -32h172q67 0 99 28q29 25 42 84h16q-4 -42 -9 -160h-486zM152 817
h302v-52h-302v52z" />
    <glyph glyph-name="aogonek" unicode="&#x105;" horiz-adv-x="472" 
d="M325 171v43q-6 31 -27.5 46t-41.5 13l-12 -1q-60 -5 -100 -44.5t-40 -91.5q0 -43 27.5 -71t74.5 -28q51 0 85 39t34 95zM329 72q-40 -85 -142 -85q-76 0 -121 41.5t-45 106.5q0 64 54 112.5t132 61.5q13 2 34 1l20 -1q28 -1 64 -14v80q0 37 -30.5 57t-76.5 20
q-33 0 -73 -12q-33 -11 -48 -21q22 -5 22 -27q0 -13 -13 -13q-3 0 -13 2q-26 8 -26 29q0 30 44 58q48 30 115 30q175 0 175 -142v-305q0 -28 15 -28q20 0 20 35h14q0 -27 -24.5 -47t-56.5 -20q-33 0 -40 81zM432 26l-1 -13q-151 -50 -151 -134q0 -21 16.5 -33t39.5 -12
q43 0 102 43l13 -30q-67 -57 -145 -57q-39 0 -66 22t-27 57q0 115 219 157z" />
    <glyph glyph-name="Aogonek" unicode="&#x104;" horiz-adv-x="667" 
d="M430 302l-112 246l-110 -246h222zM681 17v-17l-169 -8v17q32 0 38 6q3 3 3 9q0 7 -5 22l-94 203h-269l-85 -191q-6 -13 -6 -25q0 -24 54 -24v-17l-163 8v17q46 0 61 49l277 631h18l286 -639q10 -23 20.5 -32t33.5 -9zM672 26l-1 -13q-151 -50 -151 -134q0 -21 16.5 -33
t39.5 -12q43 0 102 43l13 -30q-67 -57 -145 -57q-39 0 -66 22t-27 57q0 115 219 157z" />
    <glyph glyph-name="abreve" unicode="&#x103;" horiz-adv-x="472" 
d="M325 171v43q-6 31 -27.5 46t-41.5 13l-12 -1q-60 -5 -100 -44.5t-40 -91.5q0 -43 27.5 -71t74.5 -28q51 0 85 39t34 95zM329 72q-40 -85 -142 -85q-76 0 -121 41.5t-45 106.5q0 64 54 112.5t132 61.5q13 2 34 1l20 -1q28 -1 64 -14v80q0 37 -30.5 57t-76.5 20
q-33 0 -73 -12q-33 -11 -48 -21q22 -5 22 -27q0 -13 -13 -13q-3 0 -13 2q-26 8 -26 29q0 30 44 58q48 30 115 30q175 0 175 -142v-305q0 -28 15 -28q20 0 20 35h14q0 -27 -24.5 -47t-56.5 -20q-33 0 -40 81zM228 555q-132 0 -142 144h33q16 -89 109 -89t109 89h33
q-10 -144 -142 -144z" />
    <glyph glyph-name="Abreve" unicode="&#x102;" horiz-adv-x="667" 
d="M430 302l-112 246l-110 -246h222zM681 17v-17l-169 -8v17q32 0 38 6q3 3 3 9q0 7 -5 22l-94 203h-269l-85 -191q-6 -13 -6 -25q0 -24 54 -24v-17l-163 8v17q46 0 61 49l277 631h18l286 -639q10 -23 20.5 -32t33.5 -9zM332 734q-132 0 -142 144h33q16 -89 109 -89t109 89
h33q-10 -144 -142 -144z" />
    <glyph glyph-name="amacron" unicode="&#x101;" horiz-adv-x="472" 
d="M325 171v43q-6 31 -27.5 46t-41.5 13l-12 -1q-60 -5 -100 -44.5t-40 -91.5q0 -43 27.5 -71t74.5 -28q51 0 85 39t34 95zM329 72q-40 -85 -142 -85q-76 0 -121 41.5t-45 106.5q0 64 54 112.5t132 61.5q13 2 34 1l20 -1q28 -1 64 -14v80q0 37 -30.5 57t-76.5 20
q-33 0 -73 -12q-33 -11 -48 -21q22 -5 22 -27q0 -13 -13 -13q-3 0 -13 2q-26 8 -26 29q0 30 44 58q48 30 115 30q175 0 175 -142v-305q0 -28 15 -28q20 0 20 35h14q0 -27 -24.5 -47t-56.5 -20q-33 0 -40 81zM76 638h302v-52h-302v52z" />
    <glyph glyph-name="Amacron" unicode="&#x100;" horiz-adv-x="667" 
d="M430 302l-112 246l-110 -246h222zM681 17v-17l-169 -8v17q32 0 38 6q3 3 3 9q0 7 -5 22l-94 203h-269l-85 -191q-6 -13 -6 -25q0 -24 54 -24v-17l-163 8v17q46 0 61 49l277 631h18l286 -639q10 -23 20.5 -32t33.5 -9zM180 817h302v-52h-302v52z" />
    <glyph glyph-name="sfthyphen" unicode="&#xad;" horiz-adv-x="306" 
d="M27 270h250v-55h-250v55z" />
    <glyph glyph-name="cacute" unicode="&#x107;" 
d="M438 103q6 -4 16 -13.5l15 -14.5q-71 -88 -189 -88q-108 0 -179 72.5t-71 181.5q0 106 77.5 181t187.5 75q66 0 119 -34q49 -31 49 -63q0 -26 -38 -33q-11 -2 -15 -2q-20 0 -26 17q0 16 11.5 20t14.5 4l10 -1q-39 46 -124 46q-84 0 -133.5 -56t-49.5 -149
q0 -94 49.5 -153.5t128.5 -59.5q51 0 98 27q35 21 49 43zM212 552l87 96q39 43 62 59q43 0 52 -25q-18 -21 -69 -62l-86 -68h-46z" />
    <glyph glyph-name="Cacute" unicode="&#x106;" horiz-adv-x="612" 
d="M126 344q0 -135 68.5 -223t175.5 -88q71 0 118.5 39t62.5 103q3 -9 10 -38q-15 -74 -67.5 -113t-133.5 -39q-138 0 -232 102.5t-94 254.5q0 147 98 252.5t234 105.5q45 0 99 -20l54 -24q13 0 20 19h12q0 -109 -9 -154q-64 131 -174 131q-113 0 -177.5 -83.5t-64.5 -224.5
zM280 731l87 96q39 43 62 59q43 0 52 -25q-18 -21 -69 -62l-86 -68h-46z" />
    <glyph glyph-name="scedilla" unicode="&#x15f;" horiz-adv-x="417" 
d="M385 143q0 -70 -50 -113t-132 -43q-86 0 -153 58q-12 0 -14 -16h-14v86q6 4 18 10l18 9q43 -101 148 -101q46 0 78.5 24.5t32.5 60.5q0 41 -31 63t-99 36q-157 32 -157 141q0 60 48.5 99.5t116.5 39.5q43 0 89 -17q36 -14 55 -30q9 0 11 13h16v-73q-16 -12 -33 -23
q-39 84 -136 84q-48 0 -73.5 -20.5t-25.5 -54.5q0 -32 26 -52t93 -35q94 -21 131 -55.5t37 -90.5zM89 -190q5 10 14 31q36 -13 65 -13q60 0 60 42q0 41 -51 38l-19 -1q-7 -2 -18 -3l-11 9l56 96h36l-44 -70q6 3 18 5l18 1q35 2 58 -19t23 -53q0 -37 -32.5 -59.5t-84.5 -22.5
q-40 0 -88 19z" />
    <glyph glyph-name="Scedilla" unicode="&#x15e;" horiz-adv-x="528" 
d="M496 201q0 -100 -63.5 -158t-170.5 -58q-53 0 -110 29q-50 25 -77 57q-8 0 -23 -24h-14v130q14 6 39 19q16 -66 68 -113q57 -50 131 -50q62 0 103.5 37t41.5 92q0 63 -42 98q-38 31 -132 56q-109 29 -155 73t-46 120q0 83 59 137.5t150 54.5q87 0 178 -71q7 0 15 20l1 3
h16v-116l-34 -22q-18 55 -60 93q-49 45 -111 45q-64 0 -102 -32t-38 -89q0 -95 165 -138q113 -29 162 -75t49 -118zM156 -190q5 10 14 31q36 -13 65 -13q60 0 60 42q0 41 -51 38l-19 -1q-7 -2 -18 -3l-11 9l56 96h36l-44 -70q6 3 18 5l18 1q35 2 58 -19t23 -53
q0 -37 -32.5 -59.5t-84.5 -22.5q-40 0 -88 19z" />
    <glyph glyph-name="Idotaccent" unicode="&#x130;" horiz-adv-x="278" 
d="M180 53q0 -25 13 -31q5 -2 35 -2v-23h-178v17q30 0 35 2q13 6 13 31v592q0 25 -13 31q-5 2 -35 2v17h178v-11q-30 0 -35 -2q-13 -6 -13 -31v-592zM142 840q10 0 28 -19.5t18 -30.5t-18 -30.5t-28 -19.5t-28 19.5t-18 30.5t18 30.5t28 19.5z" />
    <glyph glyph-name="gbreve" unicode="&#x11f;" 
d="M243 453q-55 0 -89.5 -34.5t-34.5 -90.5q0 -57 33 -91.5t90 -34.5q54 0 87 34.5t33 90.5t-33.5 91t-85.5 35zM40 326q0 74 56.5 122.5t140.5 48.5q31 0 65 -9q103 45 139 45q31 0 31 -27q0 -20 -21 -21l-25 -1q-53 0 -60 -24q6 -4 15 -11q60 -48 60 -121
q0 -70 -55.5 -115.5t-138.5 -45.5q-60 0 -95 16l-3 -1q-18 -6 -18 -15q0 -17 39 -23q24 -3 106.5 -5t134.5 -40q56 -41 56 -112q0 -79 -69.5 -129t-168.5 -50q-79 0 -148 42t-69 83q0 48 103 58q10 1 31 4q-77 -16 -77 -40q0 -29 49 -63q54 -38 117 -38q67 0 115 29
q53 32 53 84q0 49 -47 82t-126 31l-35 -1q-2 0 -60 2q-54 2 -54 28q0 17 22 44q20 24 38 34q-101 48 -101 139zM245 555q-132 0 -142 144h33q16 -89 109 -89t109 89h33q-10 -144 -142 -144z" />
    <glyph glyph-name="Gbreve" unicode="&#x11e;" horiz-adv-x="695" 
d="M125 338q0 -133 68.5 -219t175.5 -86q129 0 163 109v107q0 29 -12 40t-43 11h-113l10 49h285v-18h-6q-39 0 -39 -30v-262h-19q-8 24 -17 24q-33 -29 -86 -51q-67 -27 -129 -27q-133 0 -231.5 104t-98.5 246q0 156 96.5 261t241.5 105q104 0 200 -70h2q5 -1 14 14h15v-116
q-6 -4 -17 -12t-17 -12q-26 70 -79 109t-115 39q-117 0 -183 -84.5t-66 -230.5zM360 734q-132 0 -142 144h33q16 -89 109 -89t109 89h33q-10 -144 -142 -144z" />
    <glyph glyph-name="franc" unicode="&#x20a3;" 
d="M37 197h60v440q0 33 -27 33h-18v17h434q2 -68 9 -152h-15q-28 104 -116 104h-126q-59 0 -59 -35v-225h107q40 0 56.5 13.5t21.5 50.5h14v-178h-14q-5 37 -21.5 50.5t-56.5 13.5h-107v-132h60v-50h-60v-95q0 -32 33 -32h22v-17l-48 -2l-48 -1l-44 -2l-43 -1v17h18
q28 0 28 33v100h-60v50z" />
    <glyph glyph-name="glyph328" 
d="M74 0v687h369v-687h-369zM110 651v-615h297v615h-297z" />
  </font>
</defs>
</svg>
